<?xml version="1.0" standalone="no"?>
<!DOCTYPE svg PUBLIC "-//W3C//DTD SVG 1.1//EN" "http://www.w3.org/Graphics/SVG/1.1/DTD/svg11.dtd">
<svg xmlns="http://www.w3.org/2000/svg"><defs><font id="flaticon" horiz-adv-x="512"><font-face units-per-em="512" ascent="448" descent="-64" x-height="240" cap-height="480"/><missing-glyph horiz-adv-x="512"/><glyph unicode="&#xE000;" glyph-name="acceptance" horiz-adv-x="512" d="M256 448C114.624 448 0 333.376 0 192c0 -141.376 114.624 -256 256 -256c141.376 0 256 114.624 256 256 C512 333.376 397.376 448 256 448zM256 -16C141.312 -16 48 77.312 48 192C48 306.688 141.312 400 256 400c114.688 0 208 -93.312 208 -208C464 77.312 370.688 -16 256 -16zM360.96 271.808c-6.448 0.272 -12.992 -1.904 -17.92 -6.848l-111.04 -111.024l-63.04 63.024c-4.928 4.944 -11.472 7.104 -17.92 6.848 c-5.808 -0.24 -11.584 -2.4 -16.016 -6.848c-4.432 -4.432 -6.608 -10.208 -6.848 -16.016c-0.272 -6.448 1.904 -12.992 6.848 -17.92l80 -80 C219.712 98.336 225.856 96 232 96c6.144 0 12.288 2.336 16.976 7.024l128 128c4.944 4.944 7.104 11.472 6.848 17.92 c-0.24 5.808 -2.4 11.584 -6.848 16.016C372.528 269.408 366.768 271.584 360.96 271.808z"/><glyph unicode="&#xE001;" glyph-name="add133" horiz-adv-x="512" d="M336 224h-48v48c0 17.664 -14.336 32 -32 32s-32 -14.32 -32 -32v-48h-48c-17.664 0 -32 -14.32 -32 -32 c0 -17.664 14.336 -32 32 -32h48v-48c0 -17.664 14.336 -32 32 -32s32 14.32 32 32v48h48c17.664 0 32 14.336 32 32C368 209.664 353.664 224 336 224zM256 448 C114.608 448 0 333.392 0 192s114.608 -256 256 -256c141.392 0 256 114.608 256 256S397.392 448 256 448zM256 -16C141.312 -16 48 77.312 48 192S141.312 400 256 400 c114.688 0 208 -93.312 208 -208S370.688 -16 256 -16z"/><glyph unicode="&#xE002;" glyph-name="airplane82" horiz-adv-x="512" d="M504.94422049311 440.96021999313c-6.5757945064217 6.5917940064373 -16.383488016 8.7997250085935 -25.135214524546 5.5998250054686l-463.98550045311 -167.99475016406 c-9.0717165088591 -3.279897503203 -15.311521514953 -11.711634011437 -15.791506515421 -21.359332520859c-0.47998500046874 -9.6636980094372 4.8798475047655 -18.655417018218 13.599575013281 -22.831286522296l192.37798818787 -92.349114090185l92.349114090185 -192.39398768788 c3.9998750039061 -8.351739008156 12.43161151214 -13.615574513296 21.631324021124 -13.615574513296c0.39998750039061 0 0.79997500078123 0.015999500015625 1.1999625011718 0.031999000031249c9.631699009406 0.47998500046874 18.079435017656 6.7037905065467 21.359332520859 15.791506515421l167.99475016406 463.98550045311 C513.71194650167 424.57673197713 511.55201399956 434.35242648667 504.94422049311 440.96021999313zM85.933314583919 252.90209680947l308.8383488016 111.80450610918L219.04915471392 189.00009374707L85.933314583919 252.90209680947zM316.90209680947 21.917315083904l-63.902003062404 133.13183963001 L428.72260241867 330.78766288553L316.90209680947 21.917315083904z"/><glyph unicode="&#xE003;" glyph-name="anchor31" horiz-adv-x="459" d="M452.768 151.616C448.208 156.944 441.552 160 434.56 160h-77.28 c-13.248 0 -24 -10.736 -24 -24c0 -13.264 10.752 -24 24 -24h46.992c-21.632 -67.056 -81.024 -116.816 -150.992 -126.256V275.392 c36.928 10.464 64 44.336 64 84.608c0 48.608 -39.408 88 -88 88c-48.608 0 -88 -39.392 -88 -88c0 -40.272 27.072 -74.144 64 -84.608v-289.648 C135.328 -4.816 75.92 44.944 54.288 112h46.976c13.264 0 24 10.736 24 24c0 13.264 -10.736 24 -24 24H24 c-7.008 0 -13.664 -3.056 -18.224 -8.384c-4.56 -5.328 -6.56 -12.368 -5.488 -19.296C17.68 20.4 116.128 -64 229.28 -64 c113.152 0 211.6 84.4 228.992 196.32C459.344 139.248 457.344 146.288 452.768 151.616zM189.28 360c0 22.048 17.952 40 40 40 c22.064 0 40 -17.952 40 -40c0 -22.048 -17.936 -40 -40 -40C207.216 320 189.28 337.952 189.28 360z"/><glyph unicode="&#xE004;" glyph-name="attachment13" horiz-adv-x="560" d="M517.44 403.728l-2.624 2.592c-58 56.16 -150.896 55.568 -208.176 -1.728 L41.488 139.36C21.504 119.344 0 82.992 0 50.464c0 -30.544 11.92 -59.296 33.536 -80.896C55.168 -52.08 83.936 -64 114.544 -64H114.56 c30.608 0.016 59.376 11.936 80.992 33.584l228.896 228.912c15.728 15.728 24.336 37.52 23.568 59.824c-0.72 20.464 -9.088 39.68 -23.568 54.128 c-15.232 15.216 -35.456 23.6 -56.992 23.6c-21.536 0 -41.776 -8.368 -56.96 -23.6L135.2 137.136c-4.416 -4.368 -7.184 -10.416 -7.184 -17.104 c0 -13.248 10.736 -24 24 -24c6.624 0 12.608 2.688 16.944 7.024l0.016 -0.016l175.472 175.504C350.72 284.8 359.376 287.872 368 287.728 c8.272 -0.128 16.496 -3.216 22.528 -9.232c5.84 -5.84 9.216 -13.616 9.52 -21.824c0.32 -9.152 -3.072 -17.776 -9.536 -24.24L161.616 3.52 C149.04 -9.056 132.336 -15.984 114.56 -16H114.544c-17.776 0 -34.496 6.944 -47.072 19.52C54.928 16.064 48 32.736 48 50.464 c0 14.912 12.576 40.064 27.44 54.96L340.592 370.64c38.848 38.88 101.888 39.152 141.088 0.96l2.544 -2.56 c37.584 -39.296 37.056 -101.84 -1.584 -140.496L263.184 9.072c-4.4 -4.368 -7.136 -10.384 -7.136 -17.072c0 -13.248 10.736 -24 24 -24 c6.624 0 12.592 2.688 16.944 7.008l0.016 -0.016l219.584 219.6C574.192 252.224 574.464 345.76 517.44 403.728z"/><glyph unicode="&#xE005;" glyph-name="attention5" horiz-adv-x="576" d="M569.616 7.936l-240 416C321.312 438.304 305.776 448 288 448 c-17.776 0 -33.312 -9.696 -41.616 -24.064l-240 -416C2.336 0.89600000000002 0 -7.28 0 -16c0 -26.496 21.504 -48 48 -48h480c26.496 0 48 21.504 48 48 C576 -7.28 573.68 0.89600000000002 569.616 7.936zM47.968 -16.048L287.952 400H288l0.032 -0.048L528 -16L47.968 -16.048zM288 96c-17.664 0 -32 -14.336 -32 -32 c0 -17.68 14.32 -32 32 -32c17.68 0 32 14.336 32 32C320 81.664 305.68 96 288 96zM256 240c0 -1.824 0.16 -3.632 0.448 -5.376l15.76 -93.312 C273.504 133.744 280.08 128 288 128c7.92 0 14.496 5.744 15.776 13.312l15.76 93.312C319.84 236.368 320 238.176 320 240c0 17.664 -14.32 32 -32 32 C270.336 272 256 257.664 256 240z"/><glyph unicode="&#xE006;" glyph-name="back36" horiz-adv-x="512" d="M296 304c-6.256 0 -11.888 -2.448 -16.176 -6.368l-0.048 0.064l-96 -88 C178.832 205.136 176 198.736 176 192s2.832 -13.136 7.776 -17.696l96 -88l0.048 0.064C284.112 82.448 289.744 80 296 80 c13.248 0 24 10.752 24 24c0 6.992 -3.04 13.248 -7.824 17.632l0.048 0.064L235.52 192l76.704 70.32l-0.048 0.064 C316.96 266.752 320 272.992 320 280C320 293.248 309.248 304 296 304zM256 448C114.624 448 0 333.376 0 192s114.624 -256 256 -256s256 114.624 256 256 S397.376 448 256 448zM256 -16C141.312 -16 48 77.312 48 192S141.312 400 256 400c114.688 0 208 -93.312 208 -208S370.688 -16 256 -16z"/><glyph unicode="&#xE007;" glyph-name="barbecue6" horiz-adv-x="476" d="M475.28 413.12c1.28 8.768 -1.328 17.664 -7.12 24.336 C462.368 444.176 453.936 448 445.088 448H30.512C21.664 448 13.264 444.16 7.456 437.456C1.664 430.768 -0.96 421.872 0.32 413.12 c11.888 -81.76 65.088 -149.968 137.632 -183.232l-43.024 -150.576c-36.432 -3.536 -65.12 -33.968 -65.12 -71.312c0 -39.696 32.304 -72 72 -72 c39.696 0 72 32.288 72 72c0 24.992 -12.816 47.008 -32.208 59.92L154.192 112h167.216l45.312 -158.592C369.6 -56.64 378.848 -64 389.808 -64 c13.248 0 24 10.752 24 24c0 2.304 -0.336 4.496 -0.928 6.592l-75.232 263.296C410.208 263.152 463.392 331.36 475.28 413.12zM101.808 -16 c-13.232 0 -24 10.768 -24 24c0 13.232 10.768 24 24 24c13.232 0 24 -10.768 24 -24C125.792 -5.232 115.04 -16 101.808 -16zM167.904 160 l15.552 54.432C200.944 210.368 219.072 208 237.792 208c18.72 0 36.864 2.368 54.336 6.416L307.696 160H167.904zM237.792 256 C150 256 73.392 316.624 51.84 400h371.904C402.224 316.624 325.616 256 237.792 256z"/><glyph unicode="&#xE008;" glyph-name="bars48" horiz-adv-x="512" d="M48 32h64c17.664 0 32 14.32 32 32V224c0 17.664 -14.336 32 -32 32H48 c-17.664 0 -32 -14.32 -32 -32v-160C16 46.32 30.336 32 48 32zM64 208h32v-128H64V208zM224 32h64c17.664 0 32 14.32 32 32V416c0 17.664 -14.336 32 -32 32h-64 c-17.664 0 -32 -14.336 -32 -32v-352C192 46.32 206.336 32 224 32zM240 400h32v-320h-32V400zM400 32h64c17.68 0 32 14.32 32 32V320c0 17.664 -14.32 32 -32 32h-64 c-17.68 0 -32 -14.336 -32 -32v-256C368 46.32 382.336 32 400 32zM416 304h32v-224h-32V304zM488 -16h-464C10.736 -16 0 -26.752 0 -40 C0 -53.248 10.736 -64 24 -64h464c13.264 0 24 10.752 24 24C512 -26.752 501.264 -16 488 -16z"/><glyph unicode="&#xE009;" glyph-name="basketball38" horiz-adv-x="512" d="M256 448C114.83664516129 448 0 333.16335483871 0 192C0 50.83664516129 114.83664516129 -64 256 -64 C397.16335483871 -64 512 50.83664516129 512 192C512 333.16335483871 397.16335483871 448 256 448zM73.992258064516 289.29651612903c9.1169032258065 -27.350709677419 24.675096774194 -46.360774193548 39.093677419355 -63.653161290323 c13.906580645161 -16.681290322581 25.616516129032 -31.066838709677 31.479741935484 -52.009290322581c-52.042322580645 6.4743225806452 -84.529548387097 16.466580645161 -94.769548387097 23.518967741935C50.621935483871 230.36696774194 59.193806451613 261.71458064516 73.992258064516 289.29651612903zM106.09961290323 50.489806451613 c-23.70064516129 25.088 -41.10864516129 56.072258064516 -49.911741935484 90.524903225806c26.409290322581 -8.8526451612903 59.061677419355 -14.385548387097 90.937806451613 -17.820903225806c-4.2281290322581 -27.912258064516 -17.622709677419 -44.362322580645 -34.023225806452 -64.082580645161 C110.77367741935 56.32 108.42838709677 53.347096774194 106.09961290323 50.489806451613zM231.22580645161 -12.816516129032c-31.826580645161 3.8152258064516 -61.406967741935 14.914064516129 -87.089548387097 31.562322580645c2.3287741935484 2.8738064516129 4.5914838709677 5.7310967741935 7.0358709677419 8.637935483871 c18.927483870968 22.709677419355 39.902967741935 48.161032258065 45.485419354839 91.879225806452c12.568774193548 -0.66064516129032 24.262193548387 -1.0735483870968 34.568258064516 -1.2882580645161V-12.816516129032zM231.22580645161 167.52309677419 c-12.321032258065 0.29729032258065 -23.997935483871 0.80929032258065 -35.162838709677 1.469935483871c-6.2596129032258 41.505032258065 -26.491870967742 66.279225806452 -44.890838709677 88.361290322581C131.30322580645 281.17058064516 115.61290322581 299.99896774194 115.61290322581 340.59561290323 c0 0.89187096774194 0.11561290322581 1.6350967741935 0.13212903225806 2.4609032258065C146.8944516129 371.99277419355 186.86348387097 391.48180645161 231.22580645161 396.81651612903V167.52309677419zM437.99122580645 289.29651612903c14.798451612903 -27.581935483871 23.370322580645 -58.913032258065 24.196129032258 -92.16 c-10.24 -7.0523870967742 -42.727225806452 -17.04464516129 -94.769548387097 -23.518967741935c5.8797419354839 20.958967741935 17.573161290323 35.344516129032 31.479741935484 52.009290322581C413.33264516129 242.93574193548 428.87432258065 261.92929032258 437.99122580645 289.29651612903zM280.77419354839 396.81651612903 c44.345806451613 -5.3347096774194 84.33135483871 -24.823741935484 115.48077419355 -53.76C396.27148387097 342.23070967742 396.38709677419 341.48748387097 396.38709677419 340.59561290323c0 -40.59664516129 -15.690322580645 -59.425032258065 -35.542709677419 -83.257806451613 c-18.398967741935 -22.082064516129 -38.631225806452 -46.856258064516 -44.890838709677 -88.361290322581c-11.164903225806 -0.66064516129032 -22.841806451613 -1.1726451612903 -35.162838709677 -1.469935483871V396.81651612903zM280.77419354839 -12.816516129032v130.79122580645 c10.306064516129 0.23122580645161 21.999483870968 0.62761290322581 34.568258064516 1.2882580645161c5.5989677419355 -43.718193548387 26.574451612903 -69.169548387097 45.485419354839 -91.879225806452c2.4443870967742 -2.9233548387097 4.7236129032258 -5.7806451612903 7.0358709677419 -8.637935483871 C342.18116129032 2.0975483870968 312.60077419355 -9.0012903225807 280.77419354839 -12.816516129032zM405.90038709677 50.489806451613c-2.3452903225806 2.8738064516129 -4.674064516129 5.8467096774194 -7.0028387096774 8.6049032258065c-16.400516129032 19.703741935484 -29.811612903226 36.170322580645 -34.023225806452 64.082580645161 c31.89264516129 3.4353548387097 64.528516129032 8.9682580645161 90.937806451613 17.820903225806C447.00903225806 106.5455483871 429.6175483871 75.561290322581 405.90038709677 50.489806451613z"/><glyph unicode="&#xE00A;" glyph-name="bell37" horiz-adv-x="448" d="M420.88 91.312C390.048 117.968 368 188.8 368 272c0 62.976 -40.48 116.368 -96.8 135.92 C267.408 430.64 247.792 448 224 448s-43.408 -17.36 -47.2 -40.08C120.48 388.368 80 334.976 80 272c0 -83.184 -22.032 -154 -52.88 -180.688 C9.904 76.416 0 54.784 0 32c0 -26.512 21.488 -48 48 -48h128c0 -26.512 21.488 -48 48 -48s48 21.488 48 48h128c26.512 0 48 21.488 48 48 C448 54.768 438.112 76.416 420.88 91.312zM48 32c0 8.832 3.84 17.232 10.512 23.008C101.376 92.064 128 175.216 128 272c0 52.944 43.056 96 96 96 c52.944 0 96 -43.056 96 -96c0 -96.784 26.624 -179.936 69.488 -216.992C396.176 49.216 400 40.832 400 32H48z"/><glyph unicode="&#xE00B;" glyph-name="blank25" horiz-adv-x="597" d="M563.2 448h-119.46666666667c-62.702933333333 0 -115.47306666667 -18.2784 -145.06666666667 -46.916266666667C269.07306666667 429.7216 216.30293333333 448 153.6 448H34.133333333333 C15.325866666667 448 0 432.6912 0 413.86666666667v-392.53333333333c0 -18.8416 15.325866666667 -34.133333333333 34.133333333333 -34.133333333333h119.46666666667c45.5168 0 94.941866666667 -19.5584 112.67413333333 -38.058666666667c8.0384 -8.3968 19.1488 -13.141333333333 30.7712 -13.141333333333h3.4133333333333 c11.537066666667 0 22.5792 4.7274666666667 30.532266666667 13.090133333333C348.65493333333 -32.392533333333 398.1312 -12.8 443.73333333333 -12.8h119.46666666667c18.824533333333 0 34.133333333333 15.291733333333 34.133333333333 34.133333333333V413.86666666667C597.33333333333 432.6912 582.02453333333 448 563.2 448zM273.06666666667 10.410666666667 C242.7392 27.904 201.02826666667 38.4 153.6 38.4H51.2V396.8h102.4c72.925866666667 0 119.46666666667 -30.327466666667 119.46666666667 -51.2V10.410666666667zM546.13333333333 38.4h-102.4c-47.428266666667 0 -89.1392 -10.496 -119.46666666667 -27.989333333333V345.6c0 20.872533333333 46.5408 51.2 119.46666666667 51.2h102.4 V38.4z"/><glyph unicode="&#xE00C;" glyph-name="bookmark26" horiz-adv-x="384" d="M288 352H96v-48h192V352zM288 256H96v-48h192V256zM352 448H32C14.352 448 0 433.648 0 416v-456 c0 -8.56 4.56 -16.464 11.952 -20.768c7.408 -4.288 16.528 -4.336 23.952 -0.08L192 28.352l156.096 -89.2C351.776 -62.96 355.888 -64 360 -64 c4.16 0 8.32 1.072 12.048 3.232C379.44 -56.464 384 -48.56 384 -40V416C384 433.648 369.648 448 352 448zM336 1.36l-132.096 75.488 C200.224 78.96 196.112 80 192 80c-4.112 0 -8.224 -1.04 -11.904 -3.152L48 1.36V400h288V1.36z"/><glyph unicode="&#xE00D;" glyph-name="brush22" horiz-adv-x="565" d="M565.19939285221 359.89954463916c0 9.4670898302746 -3.691458534566 18.368980267697 -10.350213881606 24.974748171657l-53.040430522975 53.040430522975 c-11.939837174003 11.869187249897 -31.77480336691 13.47647302332 -45.445563681523 3.7267834966193l-123.84931695874 -88.453704981372c-15.949220367048 4.2389954463916 -32.640264937215 6.71174279012 -49.914171381261 6.71174279012c-107.29957223679 0 -194.28729129295 -86.987719056161 -194.28729129295 -194.28729129295 c0 -69.501862839796 -35.077687318891 -130.77300952118 -88.312405133159 -167.40499517042c73.528908513868 -39.669932385815 157.81426797295 -62.224920656824 247.27473437284 -62.224920656824c126.81661377122 0 229.61225334621 102.795639575 229.61225334621 229.61225334621c0 17.291568925072 -2.4904098247551 33.982613495239 -6.7294052711467 49.931833862288 l88.418380019318 123.76100455361C562.90327031875 345.32799779219 565.19939285221 352.44597764592 565.19939285221 359.89954463916zM247.27473437284 -11.012556920105c-52.881468193735 0 -105.39202428591 8.9725403615289 -154.91762108459 26.264109286601C123.74334207258 58.418655995584 141.29984821305 110.89388712571 141.29984821305 165.61225334621 c0 77.909203808472 63.390644404581 141.29984821305 141.29984821305 141.29984821305c77.909203808472 0 141.29984821305 -63.390644404581 141.29984821305 -141.29984821305C423.89954463916 68.221332965365 344.66565475369 -11.012556920105 247.27473437284 -11.012556920105zM445.20049675728 271.76376431627 c-14.712846695184 22.502000827929 -33.947288533186 41.736442665931 -56.449289361115 56.449289361115l86.228232372016 61.589071339865l31.82779080999 -31.82779080999L445.20049675728 271.76376431627z"/><glyph unicode="&#xE00E;" glyph-name="chef24" horiz-adv-x="512" d="M408 400c-13.696 0 -27.056 -2.72 -39.552 -7.984C343.472 426.672 301.744 448 256 448 s-87.472 -21.328 -112.448 -55.984C131.056 397.28 117.696 400 104 400C46.656 400 0 353.344 0 296c0 -49.072 34.208 -90.224 80 -101.088V-16c0 -26.512 21.488 -48 48 -48 h256c26.512 0 48 21.488 48 48V194.912c45.792 10.88 80 52.016 80 101.088C512 353.344 465.344 400 408 400zM384 -16H128v32h256V-16zM384 64H128v131.136 c16.784 4 32.384 11.808 45.248 23.344C196.816 201.456 225.84 192 256 192c30.16 0 59.2 9.456 82.752 26.48 c12.848 -11.536 28.448 -19.344 45.248 -23.344V64zM408 240c-18.912 0 -36.432 9.552 -46.864 25.536c-4.048 6.208 -10.72 10.192 -18.096 10.816 c-0.672 0.048 -1.328 0.08 -2 0.08c-6.672 0 -13.072 -2.784 -17.648 -7.728C306.576 250.448 282 240 256 240s-50.576 10.448 -67.392 28.688 c-5.024 5.456 -12.24 8.176 -19.648 7.664c-7.376 -0.624 -14.048 -4.608 -18.096 -10.816C140.432 249.552 122.928 240 104 240C73.12 240 48 265.12 48 296 C48 326.88 73.12 352 104 352c12.064 0 23.744 -4.048 33.776 -11.712c5.84 -4.464 13.408 -5.984 20.544 -4.192c7.12 1.824 13.024 6.832 16 13.568 C187.792 380.24 219.856 400 256 400c36.144 0 68.208 -19.744 81.696 -50.336c2.96 -6.736 8.864 -11.744 15.984 -13.584 c7.136 -1.792 14.704 -0.288 20.544 4.192C384.256 347.952 395.936 352 408 352C438.88 352 464 326.88 464 296C464 265.12 438.88 240 408 240z"/><glyph unicode="&#xE00F;" glyph-name="chronometer17" horiz-adv-x="481" d="M431.67806060606 345.73963636364L453.53890909091 323.87878787879L480.9696969697 351.30957575758L415.30957575758 416.9696969697L387.87878787879 389.53890909091l21.860848484848 -21.860848484848 l-10.767515151515 -10.767515151515c-33.264484848485 29.230545454545 -74.534787878788 49.353696969697 -120.13381818182 56.692363636364C276.61963636364 432.93478787879 260.4063030303 448 240.48484848485 448s-36.134787878788 -15.065212121212 -38.337939393939 -34.397090909091 C87.738181818182 395.15539393939 0 296.01357575758 0 176.48484848485C0 43.876848484848 107.87684848485 -64 240.48484848485 -64C373.09284848485 -64 480.9696969697 43.876848484848 480.9696969697 176.48484848485c0 60.726303030303 -22.807272727273 116.09987878788 -60.059151515152 158.48727272727 L431.67806060606 345.73963636364zM434.42424242424 176.48484848485C434.42424242424 69.538909090909 347.43078787879 -17.454545454545 240.48484848485 -17.454545454545C133.53890909091 -17.454545454545 46.545454545455 69.538909090909 46.545454545455 176.48484848485C46.545454545455 283.43078787879 133.53890909091 370.42424242424 240.48484848485 370.42424242424 C347.43078787879 370.42424242424 434.42424242424 283.43078787879 434.42424242424 176.48484848485zM263.75757575758 207.34448484848V300.60606060606C263.75757575758 313.45260606061 253.34690909091 323.87878787879 240.48484848485 323.87878787879C227.62278787879 323.87878787879 217.21212121212 313.45260606061 217.21212121212 300.60606060606v-93.261575757576 c-9.3711515151515 -7.0749090909091 -15.515151515152 -18.199272727273 -15.515151515152 -30.859636363636c0 -12.660363636364 6.144 -23.784727272727 15.515151515152 -30.859636363636V114.42424242424c0 -12.846545454545 10.410666666667 -23.272727272727 23.272727272727 -23.272727272727c12.862060606061 0 23.272727272727 10.426181818182 23.272727272727 23.272727272727v31.20096969697 c9.3556363636364 7.0749090909091 15.515151515152 18.199272727273 15.515151515152 30.859636363636C279.27272727273 189.14521212121 273.11321212121 200.26957575758 263.75757575758 207.34448484848z"/><glyph unicode="&#xE010;" glyph-name="circular210" horiz-adv-x="512" d="M371.61290322581 216.77419354839H280.77419354839V324.12903225806C280.77419354839 337.82090322581 269.69187096774 348.90322580645 256 348.90322580645C242.30812903226 348.90322580645 231.22580645161 337.82090322581 231.22580645161 324.12903225806V167.22580645161h140.38709677419 c13.67535483871 0 24.774193548387 11.082322580645 24.774193548387 24.774193548387C396.38709677419 205.69187096774 385.28825806452 216.77419354839 371.61290322581 216.77419354839zM256 448C114.62193548387 448 0 333.37806451613 0 192S114.62193548387 -64 256 -64 C397.37806451613 -64 512 50.621935483871 512 192S397.37806451613 448 256 448zM256 -14.451612903226C142.15432258065 -14.451612903226 49.548387096774 78.154322580645 49.548387096774 192C49.548387096774 305.84567741935 142.15432258065 398.45161290323 256 398.45161290323C369.84567741935 398.45161290323 462.45161290323 305.84567741935 462.45161290323 192 C462.45161290323 78.154322580645 369.84567741935 -14.451612903226 256 -14.451612903226z"/><glyph unicode="&#xE011;" glyph-name="circular212" horiz-adv-x="512" d="M256 448C114.62193548387 448 0 333.37806451613 0 192C0 50.605419354839 114.62193548387 -64 256 -64S512 50.605419354839 512 192 C512 333.37806451613 397.37806451613 448 256 448zM280.77419354839 396.81651612903C374.81703225806 385.50296774194 449.50296774194 310.80051612903 460.81651612903 216.77419354839H280.77419354839V396.81651612903zM256 -14.451612903226C142.15432258065 -14.451612903226 49.548387096774 78.154322580645 49.548387096774 192 C49.548387096774 297.43896774194 129.05703225806 384.512 231.22580645161 396.81651612903V167.22580645161h229.59070967742C448.52851612903 65.040516129032 361.43896774194 -14.451612903226 256 -14.451612903226z"/><glyph unicode="&#xE012;" glyph-name="clipboard66" horiz-adv-x="384" d="M96 128h192v48H96V128zM352 400h-48V432c0 8.848 -7.152 16 -16 16H96C87.152 448 80 440.848 80 432v-32 H32C14.336 400 0 385.68 0 368v-400c0 -17.68 14.336 -32 32 -32h320c17.664 0 32 14.336 32 32V368C384 385.68 369.664 400 352 400zM128 400h128v-48H128V400zM336 -16H48V352h32v-32 c0 -8.848 7.152 -16 16 -16h192c8.848 0 16 7.152 16 16V352h32V-16zM96 208h192v48H96V208z"/><glyph unicode="&#xE013;" glyph-name="clockwise2" horiz-adv-x="512" d="M488 432C474.752 432 464 421.248 464 408v-66.8C416.352 407.84 339.712 448 256 448 C114.848 448 0 333.152 0 192c0 -141.152 114.848 -256 256 -256c104.048 0 196.96 62.16 236.704 158.336c2.528 6.128 2.336 12.688 -0.016 18.336 c-2.352 5.68 -6.88 10.464 -13.024 13.008c-6.112 2.528 -12.672 2.336 -18.336 -0.016c-5.664 -2.352 -10.448 -6.896 -12.992 -13.008 C416.048 34.496 340.544 -16 256 -16C141.312 -16 48 77.312 48 192C48 306.688 141.312 400 256 400c71.776 0 137.12 -36.368 175.184 -96H360 C346.752 304 336 293.248 336 280c0 -13.248 10.752 -24 24 -24h128c13.248 0 24 10.752 24 24v128C512 421.248 501.248 432 488 432z"/><glyph unicode="&#xE014;" glyph-name="close40" horiz-adv-x="512" d="M351.792 264.96c-0.24 5.808 -2.4 11.568 -6.848 16 c-4.432 4.432 -10.192 6.608 -16 6.848c-6.464 0.272 -13.008 -1.904 -17.936 -6.848L256 225.936l-55.008 55.024 c-4.944 4.944 -11.472 7.104 -17.936 6.848c-5.808 -0.24 -11.568 -2.4 -16 -6.848c-4.432 -4.432 -6.608 -10.192 -6.848 -16 c-0.272 -6.464 1.904 -12.992 6.848 -17.936L222.064 192l-55.008 -55.008c-4.944 -4.944 -7.104 -11.472 -6.848 -17.936 c0.24 -5.808 2.4 -11.568 6.848 -16c4.432 -4.432 10.192 -6.608 16 -6.848c6.464 -0.272 12.992 1.904 17.936 6.848L256 158.064l55.024 -55.024 c4.944 -4.944 11.472 -7.104 17.936 -6.848c5.808 0.24 11.568 2.4 16 6.848c4.432 4.432 6.608 10.192 6.848 16 c0.272 6.464 -1.904 12.992 -6.848 17.936L289.936 192l55.008 55.008C349.888 251.952 352.064 258.48 351.792 264.96zM256 448 C114.624 448 0 333.376 0 192c0 -141.376 114.624 -256 256 -256c141.376 0 256 114.624 256 256C512 333.376 397.376 448 256 448zM256 -16C141.312 -16 48 77.312 48 192 C48 306.688 141.312 400 256 400s208 -93.312 208 -208C464 77.312 370.688 -16 256 -16z"/><glyph unicode="&#xE015;" glyph-name="cloud246" horiz-adv-x="725" d="M640 202.66666666667c0 86.613333333333 -68.842666666667 156.94933333333 -154.752 159.72266666667C444.224 414.464 380.77866666667 448 309.33333333333 448 C190.272 448 93.184 355.05066666667 86.016 237.78133333333C34.922666666667 211.072 0 157.67466666667 0 96C0 7.616 71.616 -64 160 -64h426.66666666667c76.586666666667 0 138.66666666667 62.08 138.66666666667 138.66666666667 C725.33333333333 132.352 690.112 181.76 640 202.66666666667zM586.66666666667 0h-426.66666666667C107.072 0 64 43.072 64 96c0 35.818666666667 19.797333333333 68.416 51.669333333333 85.056l32.021333333333 16.746666666667 l2.1973333333333 36.074666666667C155.05066666667 318.05866666667 225.088 384 309.33333333333 384c49.216 0 94.997333333333 -22.314666666667 125.65333333333 -61.205333333333l18.432 -23.402666666667l29.781333333333 -0.96C535.232 296.74666666667 576 254.67733333333 576 202.66666666667 v-42.645333333333l39.381333333333 -16.426666666667C643.28533333333 131.94666666667 661.33333333333 104.896 661.33333333333 74.666666666667C661.33333333333 33.493333333333 627.84 0 586.66666666667 0z"/><glyph unicode="&#xE016;" glyph-name="cloud247" horiz-adv-x="544" d="M232 400c40.24 0 77.616 -20.064 99.984 -53.696l7.84 -11.792l14.112 1.152 C355.936 335.84 357.952 336 360 336c39.696 0 72 -32.304 72 -72c0 -13.248 10.736 -24 24 -24s24 10.752 24 24 c0 64.848 -51.712 117.84 -116.064 119.936C332.16 424.288 283.776 448 232 448C142.784 448 69.6 378.112 64.304 290.208C25.248 269.712 0 228.96 0 184 C0 117.824 53.824 64 120 64C133.264 64 144 74.752 144 88C144 101.248 133.264 112 120 112C80.304 112 48 144.288 48 184 c0 30.48 19.376 57.744 48.224 67.872l16.72 5.872L112 280C112 346.176 165.824 400 232 400zM472 224c-19.232 0 -37.312 -7.488 -50.912 -21.088 c-9.376 -9.376 -9.376 -24.56 0 -33.936c9.376 -9.376 24.56 -9.376 33.936 0C459.568 173.504 465.6 176 472 176c13.232 0 24 -10.768 24 -24 c0 -13.232 -10.768 -24 -24 -24h-240c-13.264 0 -24 -10.752 -24 -24s10.736 -24 24 -24h240c39.696 0 72 32.304 72 72 C544 191.696 511.696 224 472 224zM416 64H200c-13.264 0 -24 -10.752 -24 -24c0 -13.248 10.736 -24 24 -24H416c8.816 0 16 -7.168 16 -16 c0 -8.832 -7.184 -16 -16 -16c-5.056 0 -9.712 2.304 -12.752 6.352c-8 10.592 -23.04 12.688 -33.616 4.672c-10.576 -7.984 -12.672 -23.04 -4.672 -33.616 C377.152 -54.736 395.76 -64 416 -64c35.296 0 64 28.704 64 64C480 35.296 451.296 64 416 64z"/><glyph unicode="&#xE017;" glyph-name="cloud248" horiz-adv-x="580" d="M349.86666666667 72.533333333333H307.2v76.8c0 4.7104 -3.8229333333333 8.5333333333333 -8.5333333333333 8.5333333333333 c-3.1914666666667 0 -5.9562666666667 -1.7408 -7.424 -4.3008l-68.266666666667 -119.46666666667C222.2592 32.853333333333 221.86666666667 31.402666666667 221.86666666667 29.866666666667c0 -4.7104 3.8229333333333 -8.5333333333333 8.5333333333333 -8.5333333333333H273.06666666667v-76.8 c0 -4.7104 3.8229333333333 -8.5333333333333 8.5333333333333 -8.5333333333333c3.1914666666667 0 5.9562666666667 1.7408 7.424 4.3008l68.266666666667 119.46666666667C358.00746666667 61.013333333333 358.4 62.464 358.4 64C358.4 68.7104 354.57706666667 72.533333333333 349.86666666667 72.533333333333zM512 251.73333333333c0 69.290666666667 -55.074133333333 125.55946666667 -123.8016 127.77813333333C355.3792 421.1712 304.62293333333 448 247.46666666667 448C152.2176 448 74.5472 373.64053333333 68.8128 279.82506666667 C27.938133333333 258.4576 0 215.73973333333 0 166.4C0 95.6928 57.2928 38.4 128 38.4h34.133333333333c14.1312 0 25.6 11.4688 25.6 25.6c0 14.1312 -11.4688 25.6 -25.6 25.6h-34.133333333333 C85.6576 89.6 51.2 124.04053333333 51.2 166.4c0 28.654933333333 15.837866666667 54.7328 41.335466666667 68.0448l25.617066666667 13.397333333333l1.7749333333333 28.859733333333C124.04053333333 344.04693333333 180.0704 396.8 247.46666666667 396.8 c39.3728 0 75.997866666667 -17.851733333333 100.52266666667 -48.964266666667l14.7456 -18.722133333333l23.825066666667 -0.768C428.1856 326.99733333333 460.8 293.34186666667 460.8 251.73333333333v-34.116266666667l31.505066666667 -13.141333333333 C514.62826666667 195.15733333333 529.06666666667 173.5168 529.06666666667 149.33333333333c0 -32.938666666667 -26.794666666667 -59.733333333333 -59.733333333333 -59.733333333333h-51.2c-14.1312 0 -25.6 -11.4688 -25.6 -25.6c0 -14.1312 11.4688 -25.6 25.6 -25.6h51.2 c61.269333333333 0 110.93333333333 49.664 110.93333333333 110.93333333333C580.26666666667 195.4816 552.0896 235.008 512 251.73333333333z"/><glyph unicode="&#xE018;" glyph-name="cloud249" horiz-adv-x="580" d="M298.66666666667 106.66666666667c-14.1312 0 -25.6 -11.451733333333 -25.6 -25.6v-119.46666666667c0 -14.148266666667 11.4688 -25.6 25.6 -25.6 c14.1312 0 25.6 11.451733333333 25.6 25.6v119.46666666667C324.26666666667 95.214933333333 312.79786666667 106.66666666667 298.66666666667 106.66666666667zM213.33333333333 157.86666666667c-14.1312 0 -25.6 -11.451733333333 -25.6 -25.6v-119.46666666667c0 -14.148266666667 11.4688 -25.6 25.6 -25.6 s25.6 11.451733333333 25.6 25.6v119.46666666667C238.93333333333 146.41493333333 227.46453333333 157.86666666667 213.33333333333 157.86666666667zM384 157.86666666667c-14.1312 0 -25.6 -11.451733333333 -25.6 -25.6v-119.46666666667c0 -14.148266666667 11.4688 -25.6 25.6 -25.6 c14.1312 0 25.6 11.451733333333 25.6 25.6v119.46666666667C409.6 146.41493333333 398.1312 157.86666666667 384 157.86666666667zM512 251.73333333333c0 69.290666666667 -55.074133333333 125.55946666667 -123.8016 127.77813333333 C355.3792 421.1712 304.62293333333 448 247.46666666667 448C152.2176 448 74.5472 373.64053333333 68.8128 279.82506666667C27.938133333333 258.4576 0 215.73973333333 0 166.4C0 95.6928 57.2928 38.4 128 38.4 C142.1312 38.4 153.6 49.851733333333 153.6 64C153.6 78.148266666667 142.1312 89.6 128 89.6C85.6576 89.6 51.2 124.0576 51.2 166.4c0 28.654933333333 15.837866666667 54.7328 41.335466666667 68.0448l25.617066666667 13.397333333333 l1.7749333333333 28.859733333333C124.04053333333 344.04693333333 180.0704 396.8 247.46666666667 396.8c39.3728 0 75.997866666667 -17.851733333333 100.52266666667 -48.964266666667l14.7456 -18.722133333333l23.825066666667 -0.768C428.1856 326.99733333333 460.8 293.34186666667 460.8 251.73333333333 v-34.116266666667l31.505066666667 -13.141333333333C514.62826666667 195.15733333333 529.06666666667 173.5168 529.06666666667 149.33333333333c0 -32.938666666667 -26.794666666667 -59.733333333333 -59.733333333333 -59.733333333333c-14.1312 0 -25.6 -11.451733333333 -25.6 -25.6 c0 -14.148266666667 11.4688 -25.6 25.6 -25.6c61.269333333333 0 110.93333333333 49.664 110.93333333333 110.93333333333C580.26666666667 195.4816 552.0896 235.008 512 251.73333333333z"/><glyph unicode="&#xE019;" glyph-name="cloudy17" horiz-adv-x="488" d="M183.83181395349 334.15739534884C187.07051162791 330.93060465116 191.53562790698 328.93023255814 196.46511627907 328.93023255814c9.858976744186 0 17.860465116279 8.001488372093 17.860465116279 17.860465116279 c0 4.929488372093 -2.0003720930233 9.3946046511628 -5.2390697674419 12.633302325581l-23.813953488372 23.813953488372C182.04576744186 386.46474418605 177.58065116279 388.46511627907 172.6511627907 388.46511627907C162.79218604651 388.46511627907 154.79069767442 380.46362790698 154.79069767442 370.60465116279c0 -4.929488372093 2.0003720930233 -9.3946046511628 5.2271627906977 -12.621395348837 L183.83181395349 334.15739534884zM470.32558139535 269.39534883721h-35.720930232558c-9.858976744186 0 -17.860465116279 -8.001488372093 -17.860465116279 -17.860465116279s8.001488372093 -17.860465116279 17.860465116279 -17.860465116279h35.720930232558c9.858976744186 0 17.860465116279 8.001488372093 17.860465116279 17.860465116279S480.18455813953 269.39534883721 470.32558139535 269.39534883721zM291.72093023256 376.55813953488C301.57990697674 376.55813953488 309.58139534884 384.55962790698 309.58139534884 394.41860465116v35.720930232558C309.58139534884 439.99851162791 301.57990697674 448 291.72093023256 448C281.86195348837 448 273.86046511628 439.99851162791 273.86046511628 430.13953488372v-35.720930232558C273.86046511628 384.55962790698 281.86195348837 376.55813953488 291.72093023256 376.55813953488zM386.97674418605 328.93023255814 c4.929488372093 0 9.3946046511628 2.0003720930233 12.633302325581 5.2271627906977l23.813953488372 23.813953488372C426.65079069767 361.21004651163 428.6511627907 365.6751627907 428.6511627907 370.60465116279C428.6511627907 380.46362790698 420.6496744186 388.46511627907 410.79069767442 388.46511627907c-4.929488372093 0 -9.3946046511628 -2.0003720930233 -12.621395348837 -5.2390697674419 l-23.813953488372 -23.813953488372C371.11665116279 356.18530232558 369.11627906977 351.72018604651 369.11627906977 346.79069767442C369.11627906977 336.93172093023 377.11776744186 328.93023255814 386.97674418605 328.93023255814zM172.6511627907 281.3023255814c29.946046511628 0 57.760744186047 -14.943255813953 74.406697674419 -39.959813953488l5.8344186046512 -8.7635348837209 l10.501953488372 0.8573023255814C264.88260465116 233.55534883721 266.38288372093 233.67441860465 267.90697674419 233.67441860465c29.541209302326 0 53.581395348837 -24.040186046512 53.581395348837 -53.581395348837c0 -9.858976744186 8.001488372093 -17.860465116279 17.860465116279 -17.860465116279c7.6085581395349 0 14.05023255814 4.7627906976744 16.622139534884 11.466418604651 C378.43944186047 192.25004651163 392.93023255814 220.12427906977 392.93023255814 251.53488372093c0 55.879441860465 -45.317953488372 101.20930232558 -101.20930232558 101.20930232558c-33.577674418605 0 -63.285581395349 -16.419720930233 -81.681860465116 -41.602976744186C198.08446511628 314.88 185.53451162791 317.02325581395 172.6511627907 317.02325581395 c-66.393302325581 0 -120.85581395349 -52.009674418605 -124.79702325581 -117.42660465116C18.789209302326 184.34381395349 0 154.01674418605 0 120.55813953488C0 71.31088372093 40.055069767442 31.255813953488 89.302325581395 31.255813953488C99.173209302326 31.255813953488 107.16279069767 39.257302325581 107.16279069767 49.116279069767 C107.16279069767 58.975255813954 99.173209302326 66.976744186047 89.302325581395 66.976744186047C59.76111627907 66.976744186047 35.720930232558 91.005023255814 35.720930232558 120.55813953488c0 22.682790697674 14.419348837209 42.972279069767 35.887627906977 50.509395348837l12.442790697674 4.3698604651163L83.348837209302 192 C83.348837209302 241.24725581395 123.40390697674 281.3023255814 172.6511627907 281.3023255814zM291.72093023256 317.02325581395c36.113860465116 0 65.488372093023 -29.374511627907 65.488372093023 -65.488372093023c0 -11.930790697674 -3.3577674418605 -23.028093023256 -8.9778604651163 -32.648930232558 c-14.074046511628 29.005395348837 -43.305674418605 49.354418604651 -77.395348837209 50.46176744186c-7.9419534883721 10.09711627907 -17.372279069767 18.622511627907 -27.743255813953 25.719069767442C255.0831627907 308.47404651163 272.37209302326 317.02325581395 291.72093023256 317.02325581395zM351.25581395349 150.32558139535 c-14.312186046512 0 -27.767069767442 -5.5724651162791 -37.888 -15.693395348837c-6.977488372093 -6.977488372093 -6.977488372093 -18.277209302326 0 -25.254697674419c6.977488372093 -6.977488372093 18.277209302326 -6.977488372093 25.254697674419 0 C342.00409302326 112.7471627907 346.49302325581 114.60465116279 351.25581395349 114.60465116279c9.8470697674419 0 17.860465116279 -8.0133953488372 17.860465116279 -17.860465116279c0 -9.8470697674419 -8.0133953488372 -17.860465116279 -17.860465116279 -17.860465116279h-178.60465116279c-9.8708837209302 0 -17.860465116279 -8.001488372093 -17.860465116279 -17.860465116279 s7.9895813953488 -17.860465116279 17.860465116279 -17.860465116279h178.60465116279c29.541209302326 0 53.581395348837 24.040186046512 53.581395348837 53.581395348837C404.83720930233 126.28539534884 380.79702325581 150.32558139535 351.25581395349 150.32558139535zM309.58139534884 31.255813953488H148.83720930233c-9.8708837209302 0 -17.860465116279 -8.001488372093 -17.860465116279 -17.860465116279 c0 -9.858976744186 7.9895813953488 -17.860465116279 17.860465116279 -17.860465116279H309.58139534884c6.5726511627907 0 11.906976744186 -5.3343255813953 11.906976744186 -11.906976744186c0 -6.5726511627907 -5.3343255813953 -11.906976744186 -11.906976744186 -11.906976744186c-3.7626046511628 0 -7.2275348837209 1.7146046511628 -9.5017674418605 4.7270697674419 c-5.9653953488372 7.8824186046512 -17.146046511628 9.4303255813953 -25.016558139535 3.4768372093023c-7.870511627907 -5.9415813953488 -9.4303255813953 -17.146046511628 -3.4768372093023 -25.016558139535C280.65934883721 -57.105860465116 294.5071627907 -64 309.58139534884 -64c26.266790697674 0 47.627906976744 21.36111627907 47.627906976744 47.627906976744 C357.20930232558 9.8946976744186 335.84818604651 31.255813953488 309.58139534884 31.255813953488z"/><glyph unicode="&#xE01A;" glyph-name="cloudy19" horiz-adv-x="600" d="M358.4 360.22857142857C370.52708571429 360.22857142857 380.34285714286 370.05897142857 380.34285714286 382.17142857143v43.885714285714C380.34285714286 438.1696 370.52708571429 448 358.4 448 C346.27291428571 448 336.45714285714 438.1696 336.45714285714 426.05714285714v-43.885714285714C336.45714285714 370.05897142857 346.27291428571 360.22857142857 358.4 360.22857142857zM443.66994285714 116.41417142857C467.6608 139.07382857143 482.74285714286 171.03725714286 482.74285714286 206.62857142857 c0 68.651885714286 -55.676342857143 124.34285714286 -124.34285714286 124.34285714286c-41.2672 0 -77.750857142857 -20.187428571429 -100.36662857143 -51.141485714286C243.5072 284.39405714286 228.16182857143 287.08571428571 212.11428571429 287.08571428571c-81.642057142857 0 -148.21668571429 -63.736685714286 -153.13188571429 -144.14994285714 C23.946971428571 124.6208 0 88.005485714286 0 45.714285714286C0 -14.891885714286 49.108114285714 -64 109.71428571429 -64h292.57142857143c52.516571428571 0 95.085714285714 42.569142857143 95.085714285714 95.085714285714C497.37142857143 68.725028571429 475.38468571429 101.01028571429 443.66994285714 116.41417142857zM358.4 287.08571428571c44.368457142857 0 80.457142857143 -36.088685714286 80.457142857143 -80.457142857143c0 -14.6432 -4.1252571428571 -28.277028571429 -11.015314285714 -40.096914285714c-17.261714285714 35.620571428571 -53.160228571429 60.503771428571 -95.085714285714 61.864228571429 c-9.6548571428571 12.244114285714 -21.226057142857 22.864457142857 -34.0992 31.700114285714C313.37325714286 276.56777142857 334.61394285714 287.08571428571 358.4 287.08571428571zM402.28571428571 -20.114285714286h-292.57142857143C73.4208 -20.114285714286 43.885714285714 9.4208 43.885714285714 45.714285714286 c0 24.561371428571 13.575314285714 46.913828571429 35.4304 58.324114285714l21.957485714286 11.483428571429l1.5067428571429 24.736914285714C106.32045714286 197.98308571429 154.34605714286 243.2 212.11428571429 243.2c33.748114285714 0 65.141028571429 -15.301485714286 86.162285714286 -41.969371428571 l12.639085714286 -16.047542857143l20.421485714286 -0.65828571428571C367.01622857143 183.36914285714 394.97142857143 154.5216 394.97142857143 118.85714285714v-29.242514285714l27.004342857143 -11.264C441.10994285714 70.363428571429 453.48571428571 51.8144 453.48571428571 31.085714285714 C453.48571428571 2.8525714285714 430.51885714286 -20.114285714286 402.28571428571 -20.114285714286zM475.42857142857 301.71428571429c6.0562285714286 0 11.541942857143 2.4576 15.506285714286 6.4219428571429l29.257142857143 29.257142857143C524.17097142857 341.37234285714 526.62857142857 346.85805714286 526.62857142857 352.91428571429C526.62857142857 365.02674285714 516.8128 374.85714285714 504.68571428571 374.85714285714 c-6.0562285714286 0 -11.541942857143 -2.4576 -15.506285714286 -6.4365714285714l-29.257142857143 -29.257142857143C455.94331428571 335.19908571429 453.48571428571 329.71337142857 453.48571428571 323.65714285714C453.48571428571 311.54468571429 463.30148571429 301.71428571429 475.42857142857 301.71428571429zM225.85051428571 308.13622857143 C229.82948571429 304.17188571429 235.3152 301.71428571429 241.37142857143 301.71428571429c12.112457142857 0 21.942857142857 9.8304 21.942857142857 21.942857142857c0 6.0562285714286 -2.4576 11.541942857143 -6.4365714285714 15.520914285714l-29.257142857143 29.257142857143C223.65622857143 372.39954285714 218.17051428571 374.85714285714 212.11428571429 374.85714285714 C200.00182857143 374.85714285714 190.17142857143 365.02674285714 190.17142857143 352.91428571429c0 -6.0562285714286 2.4576 -11.541942857143 6.4365714285714 -15.506285714286L225.85051428571 308.13622857143zM577.82857142857 228.57142857143h-43.885714285714c-12.112457142857 0 -21.942857142857 -9.8304 -21.942857142857 -21.942857142857 c0 -12.112457142857 9.8304 -21.942857142857 21.942857142857 -21.942857142857h43.885714285714c12.112457142857 0 21.942857142857 9.8304 21.942857142857 21.942857142857C599.77142857143 218.74102857143 589.94102857143 228.57142857143 577.82857142857 228.57142857143z"/><glyph unicode="&#xE01B;" glyph-name="cloudy20" horiz-adv-x="512" d="M156.09756097561 85.853658536585c-10.339902439024 0 -18.731707317073 -8.3793170731707 -18.731707317073 -18.731707317073s8.3918048780488 -18.731707317073 18.731707317073 -18.731707317073 c10.339902439024 0 18.731707317073 8.3793170731707 18.731707317073 18.731707317073S166.43746341463 85.853658536585 156.09756097561 85.853658536585zM218.53658536585 -26.536585365854c-10.339902439024 0 -18.731707317073 -8.3793170731707 -18.731707317073 -18.731707317073c0 -10.352390243902 8.3918048780488 -18.731707317073 18.731707317073 -18.731707317073 c10.339902439024 0 18.731707317073 8.3793170731707 18.731707317073 18.731707317073C237.26829268293 -34.915902439024 228.87648780488 -26.536585365854 218.53658536585 -26.536585365854zM156.09756097561 10.926829268293c-10.339902439024 0 -18.731707317073 -8.3793170731707 -18.731707317073 -18.731707317073c0 -10.352390243902 8.3918048780488 -18.731707317073 18.731707317073 -18.731707317073 c10.339902439024 0 18.731707317073 8.3793170731707 18.731707317073 18.731707317073C174.82926829268 2.547512195122 166.43746341463 10.926829268293 156.09756097561 10.926829268293zM405.85365853659 323.12195121951c5.1699512195122 0 9.8528780487805 2.0979512195122 13.24956097561 5.4946341463415l24.975609756098 24.975609756098 C447.46302439024 356.9763902439 449.56097560976 361.65931707317 449.56097560976 366.82926829268C449.56097560976 377.16917073171 441.16917073171 385.56097560976 430.82926829268 385.56097560976c-5.1699512195122 0 -9.8528780487805 -2.0979512195122 -13.24956097561 -5.4821463414634l-24.975609756098 -24.975609756098C389.21990243902 351.70653658537 387.12195121951 347.0236097561 387.12195121951 341.85365853659 C387.12195121951 331.51375609756 395.51375609756 323.12195121951 405.85365853659 323.12195121951zM305.9512195122 373.07317073171C316.29112195122 373.07317073171 324.68292682927 381.46497560976 324.68292682927 391.80487804878v37.463414634146C324.68292682927 439.60819512195 316.29112195122 448 305.9512195122 448C295.61131707317 448 287.21951219512 439.60819512195 287.21951219512 429.26829268293v-37.463414634146 C287.21951219512 381.46497560976 295.61131707317 373.07317073171 305.9512195122 373.07317073171zM192.81170731707 328.61658536585C196.19590243902 325.21990243902 200.87882926829 323.12195121951 206.0487804878 323.12195121951c10.339902439024 0 18.731707317073 8.3918048780488 18.731707317073 18.731707317073 c0 5.1699512195122 -2.0979512195122 9.8528780487805 -5.4821463414634 13.24956097561l-24.975609756098 24.975609756098C190.92604878049 383.46302439024 186.24312195122 385.56097560976 181.07317073171 385.56097560976C170.73326829268 385.56097560976 162.34146341463 377.16917073171 162.34146341463 366.82926829268c0 -5.1699512195122 2.0979512195122 -9.8528780487805 5.4821463414634 -13.24956097561 L192.81170731707 328.61658536585zM378.74263414634 164.93892682927C399.22263414634 184.28253658537 412.09756097561 211.5683902439 412.09756097561 241.9512195122c0 58.605268292683 -47.528585365854 106.14634146341 -106.14634146341 106.14634146341c-35.228097560976 0 -66.372682926829 -17.220682926829 -85.678829268293 -43.657365853659 C207.88448780488 308.3363902439 194.77229268293 310.63414634146 181.07317073171 310.63414634146c-69.69443902439 0 -126.52643902439 -54.409365853659 -130.72234146341 -123.05482926829C20.442536585366 171.95707317073 0 140.6876097561 0 104.58536585366C0 52.848390243902 41.92156097561 10.926829268293 93.658536585366 10.926829268293 C104.01092682927 10.926829268293 112.39024390244 19.306146341463 112.39024390244 29.658536585366C112.39024390244 40.010926829268 104.01092682927 48.390243902439 93.658536585366 48.390243902439C62.676292682927 48.390243902439 37.463414634146 73.603121951219 37.463414634146 104.58536585366c0 20.967024390244 11.588682926829 40.048390243902 30.245463414634 49.78887804878l18.744195121951 9.8029268292683 l1.2987317073171 21.11687804878C90.761365853659 234.57092682927 131.75882926829 273.17073170732 181.07317073171 273.17073170732c28.809365853659 0 55.608195121951 -13.062243902439 73.553170731707 -35.827512195122l10.789463414634 -13.69912195122l17.432975609756 -0.5619512195122 C313.30653658537 222.0956097561 337.17073170732 197.48214634146 337.17073170732 167.0243902439v-24.96312195122l23.052487804878 -9.6156097560976C376.55726829268 125.62731707317 387.12195121951 109.7927804878 387.12195121951 92.09756097561c0 -24.101463414634 -19.605853658537 -43.707317073171 -43.707317073171 -43.707317073171 c-10.339902439024 0 -18.731707317073 -8.3793170731707 -18.731707317073 -18.731707317073c0 -10.352390243902 8.3918048780488 -18.731707317073 18.731707317073 -18.731707317073c44.831219512195 0 81.170731707317 36.339512195122 81.170731707317 81.170731707317C424.58536585366 124.22868292683 405.81619512195 151.78926829268 378.74263414634 164.93892682927zM365.23082926829 207.72214634146c-14.748097560976 30.407804878049 -45.393170731707 51.64956097561 -81.183219512195 52.810926829268c-8.2419512195122 10.452292682927 -18.119804878049 19.51843902439 -29.109073170732 27.07356097561C267.51375609756 301.65541463415 285.64604878049 310.63414634146 305.9512195122 310.63414634146 c37.875512195122 0 68.682926829268 -30.807414634146 68.682926829268 -68.682926829268C374.63414634146 229.43843902439 371.11258536585 217.81229268293 365.23082926829 207.72214634146zM493.26829268293 260.68292682927h-37.463414634146c-10.339902439024 0 -18.731707317073 -8.3918048780488 -18.731707317073 -18.731707317073 c0 -10.339902439024 8.3918048780488 -18.731707317073 18.731707317073 -18.731707317073h37.463414634146c10.339902439024 0 18.731707317073 8.3918048780488 18.731707317073 18.731707317073C512 252.29112195122 503.60819512195 260.68292682927 493.26829268293 260.68292682927zM280.9756097561 85.853658536585c-10.339902439024 0 -18.731707317073 -8.3793170731707 -18.731707317073 -18.731707317073 s8.3918048780488 -18.731707317073 18.731707317073 -18.731707317073c10.339902439024 0 18.731707317073 8.3793170731707 18.731707317073 18.731707317073S291.31551219512 85.853658536585 280.9756097561 85.853658536585zM218.53658536585 48.390243902439c-10.339902439024 0 -18.731707317073 -8.3793170731707 -18.731707317073 -18.731707317073c0 -10.352390243902 8.3918048780488 -18.731707317073 18.731707317073 -18.731707317073 c10.339902439024 0 18.731707317073 8.3793170731707 18.731707317073 18.731707317073C237.26829268293 40.010926829268 228.87648780488 48.390243902439 218.53658536585 48.390243902439zM280.9756097561 10.926829268293c-10.339902439024 0 -18.731707317073 -8.3793170731707 -18.731707317073 -18.731707317073c0 -10.352390243902 8.3918048780488 -18.731707317073 18.731707317073 -18.731707317073 c10.339902439024 0 18.731707317073 8.3793170731707 18.731707317073 18.731707317073C299.70731707317 2.547512195122 291.31551219512 10.926829268293 280.9756097561 10.926829268293z"/><glyph unicode="&#xE01C;" glyph-name="cloudy21" horiz-adv-x="512" d="M156.09756097561 98.341463414634c-10.352390243902 0 -18.731707317073 -8.3793170731707 -18.731707317073 -18.731707317073v-87.414634146341c0 -10.352390243902 8.3793170731707 -18.731707317073 18.731707317073 -18.731707317073 c10.352390243902 0 18.731707317073 8.3793170731707 18.731707317073 18.731707317073v87.414634146341C174.82926829268 89.962146341463 166.44995121951 98.341463414634 156.09756097561 98.341463414634zM305.9512195122 373.07317073171C316.3036097561 373.07317073171 324.68292682927 381.46497560976 324.68292682927 391.80487804878v37.463414634146C324.68292682927 439.60819512195 316.3036097561 448 305.9512195122 448 C295.59882926829 448 287.21951219512 439.60819512195 287.21951219512 429.26829268293v-37.463414634146C287.21951219512 381.46497560976 295.59882926829 373.07317073171 305.9512195122 373.07317073171zM192.7992195122 328.61658536585C196.19590243902 325.21990243902 200.87882926829 323.12195121951 206.0487804878 323.12195121951c10.339902439024 0 18.731707317073 8.3918048780488 18.731707317073 18.731707317073 c0 5.1699512195122 -2.0979512195122 9.8528780487805 -5.4946341463415 13.24956097561l-24.975609756098 24.975609756098C190.92604878049 383.46302439024 186.24312195122 385.56097560976 181.07317073171 385.56097560976C170.73326829268 385.56097560976 162.34146341463 377.16917073171 162.34146341463 366.82926829268c0 -5.1699512195122 2.0979512195122 -9.8528780487805 5.4821463414634 -13.24956097561 L192.7992195122 328.61658536585zM405.85365853659 323.12195121951c5.1699512195122 0 9.8528780487805 2.0979512195122 13.24956097561 5.4946341463415l24.975609756098 24.975609756098C447.46302439024 356.9763902439 449.56097560976 361.65931707317 449.56097560976 366.82926829268C449.56097560976 377.16917073171 441.18165853659 385.56097560976 430.82926829268 385.56097560976 c-5.1699512195122 0 -9.8528780487805 -2.0979512195122 -13.237073170732 -5.4821463414634l-24.975609756098 -24.975609756098C389.21990243902 351.70653658537 387.12195121951 347.0236097561 387.12195121951 341.85365853659C387.12195121951 331.51375609756 395.50126829268 323.12195121951 405.85365853659 323.12195121951zM378.74263414634 164.93892682927 C399.22263414634 184.28253658537 412.09756097561 211.5683902439 412.09756097561 241.9512195122c0 58.605268292683 -47.528585365854 106.14634146341 -106.14634146341 106.14634146341c-35.228097560976 0 -66.372682926829 -17.220682926829 -85.678829268293 -43.657365853659C207.872 308.3363902439 194.77229268293 310.63414634146 181.07317073171 310.63414634146 c-69.69443902439 0 -126.52643902439 -54.409365853659 -130.72234146341 -123.05482926829C20.442536585366 171.95707317073 0 140.6876097561 0 104.58536585366C0 52.848390243902 41.92156097561 10.926829268293 93.658536585366 10.926829268293C104.01092682927 10.926829268293 112.39024390244 19.306146341463 112.39024390244 29.658536585366 C112.39024390244 40.010926829268 104.01092682927 48.390243902439 93.658536585366 48.390243902439C62.676292682927 48.390243902439 37.463414634146 73.603121951219 37.463414634146 104.58536585366c0 20.967024390244 11.588682926829 40.048390243902 30.245463414634 49.78887804878l18.744195121951 9.8029268292683l1.286243902439 21.11687804878 C90.761365853659 234.57092682927 131.75882926829 273.17073170732 181.07317073171 273.17073170732c28.809365853659 0 55.608195121951 -13.062243902439 73.553170731707 -35.827512195122l10.789463414634 -13.69912195122l17.432975609756 -0.5619512195122C313.30653658537 222.0956097561 337.17073170732 197.48214634146 337.17073170732 167.0243902439v-24.96312195122 l23.052487804878 -9.6156097560976C376.55726829268 125.62731707317 387.12195121951 109.7927804878 387.12195121951 92.09756097561c0 -24.101463414634 -19.605853658537 -43.707317073171 -43.707317073171 -43.707317073171c-10.352390243902 0 -18.731707317073 -8.3793170731707 -18.731707317073 -18.731707317073c0 -10.352390243902 8.3793170731707 -18.731707317073 18.731707317073 -18.731707317073 c44.831219512195 0 81.170731707317 36.339512195122 81.170731707317 81.170731707317C424.58536585366 124.22868292683 405.81619512195 151.78926829268 378.74263414634 164.93892682927zM365.23082926829 207.72214634146c-14.735609756098 30.407804878049 -45.380682926829 51.64956097561 -81.170731707317 52.810926829268 c-8.2419512195122 10.452292682927 -18.119804878049 19.51843902439 -29.109073170732 27.07356097561C267.51375609756 301.65541463415 285.64604878049 310.63414634146 305.9512195122 310.63414634146c37.875512195122 0 68.682926829268 -30.807414634146 68.682926829268 -68.682926829268 C374.63414634146 229.45092682927 371.11258536585 217.81229268293 365.23082926829 207.72214634146zM218.53658536585 60.878048780488c-10.352390243902 0 -18.731707317073 -8.3793170731707 -18.731707317073 -18.731707317073v-87.414634146341c0 -10.352390243902 8.3793170731707 -18.731707317073 18.731707317073 -18.731707317073 c10.339902439024 0 18.731707317073 8.3793170731707 18.731707317073 18.731707317073v87.414634146341C237.26829268293 52.498731707317 228.87648780488 60.878048780488 218.53658536585 60.878048780488zM493.26829268293 260.68292682927h-37.463414634146c-10.339902439024 0 -18.731707317073 -8.3918048780488 -18.731707317073 -18.731707317073c0 -10.339902439024 8.3918048780488 -18.731707317073 18.731707317073 -18.731707317073h37.463414634146 c10.339902439024 0 18.731707317073 8.3918048780488 18.731707317073 18.731707317073C512 252.29112195122 503.60819512195 260.68292682927 493.26829268293 260.68292682927zM280.9756097561 98.341463414634c-10.339902439024 0 -18.731707317073 -8.3793170731707 -18.731707317073 -18.731707317073v-87.414634146341c0 -10.352390243902 8.3918048780488 -18.731707317073 18.731707317073 -18.731707317073 c10.339902439024 0 18.731707317073 8.3793170731707 18.731707317073 18.731707317073v87.414634146341C299.70731707317 89.962146341463 291.31551219512 98.341463414634 280.9756097561 98.341463414634z"/><glyph unicode="&#xE01D;" glyph-name="cloudy22" horiz-adv-x="525" d="M197.632 325.632C201.1008 322.1504 205.9008 320 211.2 320c10.5984 0 19.2 8.6016 19.2 19.2 c0 5.2992 -2.1504 10.0992 -5.632 13.5808l-25.6 25.6C195.6992 381.8496 190.8992 384 185.6 384C175.0016 384 166.4 375.3984 166.4 364.8c0 -5.2992 2.1504 -10.0992 5.632 -13.5808 L197.632 325.632zM288 -25.6h-128c-10.5984 0 -19.2 -8.5888 -19.2 -19.2s8.6016 -19.2 19.2 -19.2h128c10.5984 0 19.2 8.5888 19.2 19.2S298.5984 -25.6 288 -25.6zM313.6 371.2C324.1984 371.2 332.8 379.8016 332.8 390.4v38.4C332.8 439.3984 324.1984 448 313.6 448C303.0016 448 294.4 439.3984 294.4 428.8v-38.4C294.4 379.8016 303.0016 371.2 313.6 371.2zM416 320 c5.2992 0 10.0992 2.1504 13.568 5.632l25.6 25.6C458.6496 354.7008 460.8 359.5008 460.8 364.8C460.8 375.3984 452.1984 384 441.6 384c-5.2992 0 -10.0992 -2.1504 -13.568 -5.6192l-25.6 -25.6 C398.9504 349.2992 396.8 344.4992 396.8 339.2C396.8 328.6016 405.4016 320 416 320zM288 102.4h-128c-10.5984 0 -19.2 -8.5888 -19.2 -19.2c0 -10.6112 8.6016 -19.2 19.2 -19.2 h128c10.5984 0 19.2 8.5888 19.2 19.2C307.2 93.8112 298.5984 102.4 288 102.4zM505.6 256h-38.4c-10.5984 0 -19.2 -8.6016 -19.2 -19.2c0 -10.5984 8.6016 -19.2 19.2 -19.2h38.4 c10.5984 0 19.2 8.6016 19.2 19.2C524.8 247.3984 516.1984 256 505.6 256zM288 38.4h-128c-10.5984 0 -19.2 -8.5888 -19.2 -19.2c0 -10.6112 8.6016 -19.2 19.2 -19.2h128 c10.5984 0 19.2 8.5888 19.2 19.2C307.2 29.8112 298.5984 38.4 288 38.4zM388.2112 157.8624C409.2032 177.6896 422.4 205.6576 422.4 236.8 c0 60.0704 -48.7168 108.8 -108.8 108.8c-36.1088 0 -68.032 -17.6512 -87.808 -44.7488C213.0816 304.8448 199.6416 307.2 185.6 307.2c-71.4368 0 -129.6896 -55.7696 -133.9904 -126.1312 C20.9536 165.056 0 133.0048 0 96C0 42.9696 42.9696 0 96 0C106.5984 0 115.2 8.5888 115.2 19.2C115.2 29.8112 106.5984 38.4 96 38.4 C64.2432 38.4 38.4 64.2432 38.4 96c0 21.4912 11.8784 41.0496 31.0016 51.0336l19.2128 10.048l1.3312 21.6448C93.0304 229.2352 135.0528 268.8 185.6 268.8 c29.5296 0 56.9984 -13.3888 75.392 -36.7232l11.0592 -14.0416l17.856 -0.576C321.1392 216.448 345.6 191.2192 345.6 160v-25.5872l23.6288 -9.856 C385.9712 117.568 396.8 101.3376 396.8 83.2c0 -24.704 -20.096 -44.8 -44.8 -44.8c-10.5984 0 -19.2 -8.5888 -19.2 -19.2c0 -10.6112 8.6016 -19.2 19.2 -19.2 c45.952 0 83.2 37.248 83.2 83.2C435.2 116.1344 415.9616 144.384 388.2112 157.8624zM374.3616 201.7152c-15.1168 31.168 -46.528 52.9408 -83.2128 54.1312 c-8.448 10.7136 -18.5728 20.0064 -29.8368 27.7504C274.2016 297.9968 292.7872 307.2 313.6 307.2c38.8224 0 70.4 -31.5776 70.4 -70.4 C384 223.9744 380.3904 212.0576 374.3616 201.7152z"/><glyph unicode="&#xE01E;" glyph-name="cold10" horiz-adv-x="580" d="M298.66666666667 -12.8c-14.1312 0 -25.6 -11.451733333333 -25.6 -25.6c0 -14.148266666667 11.4688 -25.6 25.6 -25.6 c14.1312 0 25.6 11.451733333333 25.6 25.6C324.26666666667 -24.251733333333 312.79786666667 -12.8 298.66666666667 -12.8zM213.33333333333 140.8c-14.1312 0 -25.6 -11.451733333333 -25.6 -25.6c0 -14.148266666667 11.4688 -25.6 25.6 -25.6 c14.1312 0 25.6 11.451733333333 25.6 25.6C238.93333333333 129.34826666667 227.46453333333 140.8 213.33333333333 140.8zM213.33333333333 38.4c-14.1312 0 -25.6 -11.451733333333 -25.6 -25.6c0 -14.148266666667 11.4688 -25.6 25.6 -25.6 c14.1312 0 25.6 11.451733333333 25.6 25.6C238.93333333333 26.948266666667 227.46453333333 38.4 213.33333333333 38.4zM384 38.4c-14.1312 0 -25.6 -11.451733333333 -25.6 -25.6c0 -14.148266666667 11.4688 -25.6 25.6 -25.6 c14.1312 0 25.6 11.451733333333 25.6 25.6C409.6 26.948266666667 398.1312 38.4 384 38.4zM512 251.73333333333c0 69.290666666667 -55.074133333333 125.55946666667 -123.8016 127.77813333333C355.3792 421.1712 304.62293333333 448 247.46666666667 448 C152.2176 448 74.5472 373.64053333333 68.8128 279.82506666667C27.938133333333 258.4576 0 215.73973333333 0 166.4C0 95.6928 57.2928 38.4 128 38.4C142.1312 38.4 153.6 49.851733333333 153.6 64 C153.6 78.148266666667 142.1312 89.6 128 89.6C85.6576 89.6 51.2 124.0576 51.2 166.4c0 28.654933333333 15.837866666667 54.7328 41.335466666667 68.0448l25.617066666667 13.397333333333l1.7749333333333 28.859733333333 C124.04053333333 344.04693333333 180.0704 396.8 247.46666666667 396.8c39.3728 0 75.997866666667 -17.851733333333 100.52266666667 -48.964266666667l14.7456 -18.722133333333l23.808 -0.768C428.1856 326.99733333333 460.8 293.34186666667 460.8 251.73333333333v-34.116266666667 l31.505066666667 -13.141333333333C514.62826666667 195.15733333333 529.06666666667 173.5168 529.06666666667 149.33333333333c0 -32.938666666667 -26.794666666667 -59.733333333333 -59.733333333333 -59.733333333333c-14.1312 0 -25.6 -11.451733333333 -25.6 -25.6c0 -14.148266666667 11.4688 -25.6 25.6 -25.6 c61.269333333333 0 110.93333333333 49.664 110.93333333333 110.93333333333C580.26666666667 195.4816 552.0896 235.008 512 251.73333333333zM298.66666666667 89.6c-14.1312 0 -25.6 -11.451733333333 -25.6 -25.6c0 -14.148266666667 11.4688 -25.6 25.6 -25.6 c14.1312 0 25.6 11.451733333333 25.6 25.6C324.26666666667 78.148266666667 312.79786666667 89.6 298.66666666667 89.6zM384 140.8c-14.1312 0 -25.6 -11.451733333333 -25.6 -25.6c0 -14.148266666667 11.4688 -25.6 25.6 -25.6 c14.1312 0 25.6 11.451733333333 25.6 25.6C409.6 129.34826666667 398.1312 140.8 384 140.8z"/><glyph unicode="&#xE01F;" glyph-name="commercial26" horiz-adv-x="560" d="M128 32c-26.512 0 -48 -21.488 -48 -48s21.488 -48 48 -48c26.512 0 48 21.488 48 48S154.512 32 128 32 zM512 368H113.936L40.96 440.96C36.624 445.312 30.624 448 24 448C10.736 448 0 437.264 0 424c0 -6.624 2.688 -12.624 7.04 -16.96L64 350.064V112 c0 -26.512 21.488 -48 48 -48h304c19.328 0 36 11.44 43.616 27.904l96 208C558.416 306.016 560 312.832 560 320C560 346.512 538.496 368 512 368zM416 112H112v128 h363.088L416 112zM497.248 288H112V320h400l0.032 0.032L497.248 288zM384 32c-26.496 0 -48 -21.488 -48 -48s21.504 -48 48 -48s48 21.488 48 48S410.496 32 384 32z"/><glyph unicode="&#xE020;" glyph-name="compass79" horiz-adv-x="512" d="M256 448C114.608 448 0 333.376 0 192c0 -141.376 114.608 -256 256 -256c141.392 0 256 114.624 256 256 C512 333.376 397.392 448 256 448zM256 -16C141.312 -16 48 77.312 48 192C48 306.688 141.312 400 256 400c114.688 0 208 -93.312 208 -208C464 77.312 370.688 -16 256 -16zM352 304c-1.616 0 -3.184 -0.256 -4.64 -0.688l-114.592 -34.752c-25.488 -7.728 -45.6 -27.84 -53.328 -53.312l-34.736 -114.592 C144.24 99.184 144 97.632 144 96c0 -8.848 7.168 -16 16 -16c1.616 0 3.184 0.256 4.656 0.688l114.592 34.752c25.488 7.728 45.6 27.84 53.328 53.312 l34.736 114.592C367.76 284.816 368 286.368 368 288C368 296.848 360.832 304 352 304zM256 160c-17.664 0 -32 14.336 -32 32c0 17.68 14.336 32 32 32 s32 -14.336 32 -32C288 174.336 273.664 160 256 160z"/><glyph unicode="&#xE021;" glyph-name="cooking20" horiz-adv-x="416" d="M392 368H304V416c0 17.664 -14.336 32 -32 32H144C126.336 448 112 433.664 112 416v-48H24 C10.752 368 0 357.264 0 344C0 330.736 10.752 320 24 320H32v-352c0 -17.68 14.336 -32 32 -32h288c17.664 0 32 14.336 32 32V320h8C405.248 320 416 330.736 416 344 C416 357.264 405.248 368 392 368zM160 400h96v-32h-96V400zM336 -16H80V320h256V-16z"/><glyph unicode="&#xE022;" glyph-name="cupcake13" horiz-adv-x="496" d="M496.48484848485 192c0 28.935757575758 -17.625212121212 54.147878787879 -43.566545454545 64.605090909091 c-21.690181818182 61.315878787879 -69.911272727273 108.73018181818 -129.14812121212 130.93236363636C315.93503030303 422.07418181818 285.12193939394 448 248.24242424242 448c-36.864 0 -67.692606060606 -25.925818181818 -75.527757575758 -60.44703030303 c-59.236848484848 -22.217696969697 -107.45793939394 -69.616484848485 -129.14812121212 -130.93236363636C17.625212121212 246.14787878788 0 220.93575757576 0 192c0 -36.072727272727 27.601454545455 -65.50496969697 62.743272727273 -69.104484848485 C62.293333333333 120.13381818182 62.060606060606 117.29454545455 62.060606060606 114.42424242424c0 -4.4838787878788 0.5430303030303 -8.9212121212121 1.6135757575758 -13.203393939394l31.030303030303 -124.12121212121C100.77090909091 -47.088484848485 122.43006060606 -64 147.39393939394 -64h201.69696969697 c24.963878787879 0 46.62303030303 16.911515151515 52.673939393939 41.099636363636l31.030303030303 124.09018181818C433.88121212121 105.50303030303 434.42424242424 109.94036363636 434.42424242424 114.42424242424c0 2.8858181818182 -0.23272727272727 5.7095757575758 -0.66715151515152 8.4712727272727 C468.88339393939 126.49503030303 496.48484848485 155.92727272727 496.48484848485 192zM248.24242424242 401.45454545455c17.113212121212 0 31.030303030303 -13.917090909091 31.030303030303 -31.030303030303s-13.917090909091 -31.030303030303 -31.030303030303 -31.030303030303c-17.113212121212 0 -31.030303030303 13.917090909091 -31.030303030303 31.030303030303S231.12921212121 401.45454545455 248.24242424242 401.45454545455zM387.64606060606 112.53139393939 l-31.030303030303 -124.12121212121C355.91757575758 -14.429090909091 353.26448484848 -17.454545454545 349.09090909091 -17.454545454545h-201.69696969697c-4.1735757575758 0 -6.8266666666667 3.0254545454545 -7.5248484848485 5.8647272727273l-31.030303030303 124.15224242424C108.68363636364 113.13648484848 108.60606060606 113.77260606061 108.60606060606 114.42424242424 C108.60606060606 118.69090909091 112.08145454545 122.18181818182 116.36363636364 122.18181818182h263.75757575758c4.2821818181818 0 7.7575757575758 -3.4909090909091 7.7575757575758 -7.7575757575758C387.87878787879 113.77260606061 387.80121212121 113.13648484848 387.64606060606 112.53139393939zM426.66666666667 168.72727272727h-356.84848484848 C56.987151515152 168.72727272727 46.545454545455 179.16896969697 46.545454545455 192c0 11.310545454545 8.1299393939394 20.898909090909 19.331878787879 22.822787878788l14.413575757576 2.4669090909091l4.0339393939394 14.056727272727c13.963636363636 48.702060606061 48.888242424242 87.381333333333 93.090909090909 107.7216969697 C189.50206060606 311.90109090909 216.63806060606 292.84848484848 248.24242424242 292.84848484848c31.604363636364 0 58.740363636364 19.052606060606 70.826666666667 46.219636363636c44.202666666667 -20.355878787879 79.127272727273 -59.035151515152 93.090909090909 -107.7216969697l4.0339393939394 -14.056727272727l14.413575757576 -2.4669090909091 C441.80945454545 212.89890909091 449.93939393939 203.31054545455 449.93939393939 192C449.93939393939 179.16896969697 439.4976969697 168.72727272727 426.66666666667 168.72727272727z"/><glyph unicode="&#xE023;" glyph-name="danger8" horiz-adv-x="545" d="M520.57712791711 200.10612956328h-160.51954423679c-4.1646170233369 14.658790871825 -11.898905780963 27.830218521029 -22.244343307188 38.473128691779l80.185403957264 138.87014621865 c6.8418708240535 11.849327006875 2.7929376069204 27.003905619573 -9.0398631419257 33.845776443627C367.44482101933 435.30783383364 320.32845937833 448 272.68325748039 448s-94.761563538943 -12.69216616636 -136.27552370808 -36.704819082664 C124.57493302347 404.43678383525 120.52599980633 389.28220522256 127.36787063039 377.44940447371l80.185403957264 -138.87014621865c-10.345437526226 -10.64291017075 -18.079726283851 -23.797811561925 -22.244343307188 -38.473128691779H24.789387043672C11.105645395565 200.10612956328 0 189.01701042574 0 175.31674251961 c0 -96.860398308641 52.27255414609 -187.27555598593 136.40773377231 -235.97843839773c5.7015590200445 -3.2887253477938 12.460798553952 -4.181143281366 18.839934153191 -2.4789387043672c6.34608308318 1.7022045769988 11.76669571673 5.8668216003357 15.055421064523 11.551854362351l80.185403957264 138.87014621865 C257.59478389981 85.496530131371 264.99854749685 84.422323359478 272.68325748039 84.422323359478c7.6847099835383 0 15.088473580582 1.0742067718925 22.21129079113 2.8590426390368l80.185403957264 -138.87014621865c3.2887253477938 -5.7015590200445 8.7093379813434 -9.8496497853523 15.055421064523 -11.551854362351 c6.3791355992382 -1.7022045769988 13.121848875117 -0.80978664342662 18.839934153191 2.4789387043672C493.09396081469 -11.958813466318 545.36651496078 78.456344210968 545.36651496078 175.31674251961C545.36651496078 189.01701042574 534.26086956522 200.10612956328 520.57712791711 200.10612956328zM140.47319324747 -4.1088409024886 C90.514315225461 32.777767018495 57.941060650076 89.06620186566 50.983506019819 150.52735547594h134.32542526064c4.1646170233369 -14.658790871825 11.898905780963 -27.830218521029 22.244343307188 -38.45660243375L140.47319324747 -4.1088409024886zM183.37535909106 379.59781801749 c56.304961105194 24.739808269585 122.31083567348 24.739808269585 178.6323230367 0l-67.113133856234 -116.24569897679C287.75520480294 265.15348116588 280.36796746393 266.21116167974 272.68325748039 266.21116167974c-7.6847099835383 0 -15.071947322553 -1.0576805138633 -22.21129079113 -2.8590426390368L183.37535909106 379.59781801749zM272.68325748039 134.00109744682c-22.789709822149 0 -41.315645072787 18.525935250637 -41.315645072787 41.315645072787c0 22.77318356412 18.525935250637 41.315645072787 41.315645072787 41.315645072787s41.315645072787 -18.542461508667 41.315645072787 -41.315645072787C313.99890255318 152.52703269746 295.47296730254 134.00109744682 272.68325748039 134.00109744682zM404.89332171331 -4.1088409024886 l-67.080081340176 116.17959394468c10.345437526226 10.626383912721 18.079726283851 23.797811561925 22.244343307188 38.45660243375h134.32542526064C487.42545431071 89.06620186566 454.85219973532 32.777767018495 404.89332171331 -4.1088409024886z"/><glyph unicode="&#xE024;" glyph-name="database43" horiz-adv-x="448" d="M224 448C100.48 448 0 397.744 0 336v-288c0 -61.744 100.48 -112 224 -112s224 50.256 224 112V336 C448 397.744 347.52 448 224 448zM400 48c0 -19.136 -59.872 -64 -176 -64c-116.112 0 -176 44.864 -176 64v74.944C89.04 96.848 152.608 80 224 80 c71.408 0 134.96 16.848 176 42.944V48zM400 192c0 -19.136 -59.872 -64 -176 -64c-116.112 0 -176 44.864 -176 64v74.944C89.04 240.848 152.608 224 224 224 c71.408 0 134.96 16.848 176 42.928V192zM224 272C107.888 272 48 316.864 48 336c0 19.136 59.888 64 176 64c116.128 0 176 -44.864 176 -64 C400 316.864 340.128 272 224 272z"/><glyph unicode="&#xE025;" glyph-name="diaphragm9" horiz-adv-x="512" d="M256 448C114.848 448 0 333.152 0 192c0 -141.152 114.848 -256 256 -256c141.152 0 256 114.848 256 256 C512 333.152 397.152 448 256 448zM453.616 256.592l-142.224 68.56l68.992 33.152C414.24 332.944 440.16 297.632 453.616 256.592zM203.536 393.04 C220.336 397.424 237.856 400 256 400c25.568 0 49.936 -4.864 72.576 -13.328l-142.16 -68.368L203.536 393.04zM172.704 258.464l83.328 40.064l83.264 -40.144 l20.544 -90.112L302.208 96h-92.464l-57.648 72.416L172.704 258.464zM149.04 370.048l-35.184 -153.616l-47.76 60 C83.536 315.504 112.672 348.128 149.04 370.048zM71.664 96C56.624 124.752 48 157.376 48 192c0 9.36 0.832 18.496 2.032 27.536L148.384 96H71.664zM216 -12.048C173.296 -3.696 135.312 17.792 106.256 48h157.664L216 -12.048zM275.04 -15.04l98.448 123.44l17.04 -74.752 C358.784 6.624 318.896 -11.04 275.04 -15.04zM429.696 77.888l-35.056 153.824l69.024 -33.28C463.728 196.288 464 194.176 464 192 C464 149.872 451.328 110.688 429.696 77.888z"/><glyph unicode="&#xE026;" glyph-name="down53" horiz-adv-x="512" d="M256 448C114.624 448 0 333.376 0 192s114.624 -256 256 -256c141.376 0 256 114.624 256 256 S397.376 448 256 448zM256 -16C141.312 -16 48 77.312 48 192S141.312 400 256 400c114.688 0 208 -93.312 208 -208S370.688 -16 256 -16zM344 256 c-7.008 0 -13.248 -3.04 -17.632 -7.824l-0.064 0.048L256 171.52l-70.32 76.704l-0.064 -0.048C181.248 252.96 175.008 256 168 256 C154.752 256 144 245.248 144 232c0 -6.256 2.448 -11.888 6.368 -16.176l-0.064 -0.048l88 -96C242.864 114.832 249.264 112 256 112 c6.736 0 13.136 2.832 17.68 7.776l88 96l-0.064 0.048C365.552 220.112 368 225.744 368 232C368 245.248 357.248 256 344 256z"/><glyph unicode="&#xE027;" glyph-name="download131" horiz-adv-x="432" d="M112 184c0 -6.624 2.688 -12.624 7.024 -16.96l80 -80 C203.376 82.688 209.376 80 216 80c6.624 0 12.624 2.688 16.96 7.04l80 80C317.312 171.376 320 177.376 320 184c0 13.248 -10.736 24 -24 24 c-6.624 0 -12.624 -2.688 -16.96 -7.024L240 161.936V424C240 437.248 229.264 448 216 448C202.736 448 192 437.248 192 424v-262.064L152.96 200.96 C148.624 205.312 142.624 208 136 208C122.736 208 112 197.248 112 184zM400 336h-88C298.736 336 288 325.248 288 312c0 -13.248 10.736 -24 24 -24H384v-304H48 V288h72C133.264 288 144 298.752 144 312C144 325.248 133.264 336 120 336H32C14.352 336 0 321.632 0 304v-336c0 -17.632 14.352 -32 32 -32h368c17.648 0 32 14.368 32 32V304 C432 321.632 417.648 336 400 336z"/><glyph unicode="&#xE028;" glyph-name="edit41" horiz-adv-x="512" d="M506.416 309.584l-132.848 132.848C369.824 446.176 364.912 448 360 448 c-4.912 0 -9.824 -1.824 -13.568 -5.584L0 96v-160h160l346.416 346.416C510.176 286.176 512 291.088 512 296C512 300.928 510.176 305.824 506.416 309.584zM48 -16v78.064L126.064 -16H48zM168.976 8.96l-96 96L295.04 327.04l96 -96L168.976 8.96zM424.976 264.96l-96 96L360 392l96 -96L424.976 264.96z"/><glyph unicode="&#xE029;" glyph-name="electrical14" horiz-adv-x="512" d="M192.81170731707 328.60409756098C196.19590243902 325.21990243902 200.87882926829 323.12195121951 206.0487804878 323.12195121951c10.339902439024 0 18.731707317073 8.3918048780488 18.731707317073 18.731707317073 c0 5.1699512195122 -2.0979512195122 9.8528780487805 -5.4821463414634 13.24956097561l-24.975609756098 24.975609756098C190.92604878049 383.46302439024 186.24312195122 385.56097560976 181.07317073171 385.56097560976C170.73326829268 385.56097560976 162.34146341463 377.16917073171 162.34146341463 366.82926829268c0 -5.1699512195122 2.0979512195122 -9.8528780487805 5.4821463414634 -13.237073170732 L192.81170731707 328.60409756098zM305.9512195122 373.07317073171C316.29112195122 373.07317073171 324.68292682927 381.46497560976 324.68292682927 391.80487804878v37.463414634146C324.68292682927 439.60819512195 316.29112195122 448 305.9512195122 448C295.61131707317 448 287.21951219512 439.60819512195 287.21951219512 429.26829268293v-37.463414634146 C287.21951219512 381.46497560976 295.61131707317 373.07317073171 305.9512195122 373.07317073171zM405.85365853659 323.12195121951c5.1699512195122 0 9.8528780487805 2.0979512195122 13.24956097561 5.4821463414634l24.975609756098 24.975609756098C447.46302439024 356.9763902439 449.56097560976 361.65931707317 449.56097560976 366.82926829268C449.56097560976 377.16917073171 441.16917073171 385.56097560976 430.82926829268 385.56097560976 c-5.1699512195122 0 -9.8528780487805 -2.0979512195122 -13.24956097561 -5.4946341463415l-24.975609756098 -24.975609756098C389.21990243902 351.70653658537 387.12195121951 347.0236097561 387.12195121951 341.85365853659C387.12195121951 331.51375609756 395.51375609756 323.12195121951 405.85365853659 323.12195121951zM378.74263414634 164.95141463415 C399.22263414634 184.28253658537 412.09756097561 211.55590243902 412.09756097561 241.9512195122c0 58.605268292683 -47.528585365854 106.14634146341 -106.14634146341 106.14634146341c-35.228097560976 0 -66.372682926829 -17.220682926829 -85.678829268293 -43.657365853659C207.88448780488 308.3363902439 194.77229268293 310.63414634146 181.07317073171 310.63414634146 c-69.69443902439 0 -126.52643902439 -54.409365853659 -130.72234146341 -123.05482926829C20.442536585366 171.94458536585 0 140.6876097561 0 104.58536585366C0 52.848390243902 41.92156097561 10.926829268293 93.658536585366 10.926829268293h24.975609756098c10.339902439024 0 18.731707317073 8.3918048780488 18.731707317073 18.731707317073 c0 10.339902439024 -8.3918048780488 18.731707317073 -18.731707317073 18.731707317073h-24.975609756098C62.676292682927 48.390243902439 37.463414634146 73.590634146341 37.463414634146 104.58536585366c0 20.967024390244 11.588682926829 40.048390243902 30.245463414634 49.78887804878l18.744195121951 9.8029268292683l1.2987317073171 21.11687804878 C90.761365853659 234.57092682927 131.75882926829 273.17073170732 181.07317073171 273.17073170732c28.809365853659 0 55.608195121951 -13.062243902439 73.553170731707 -35.827512195122l10.789463414634 -13.69912195122l17.432975609756 -0.5619512195122C313.30653658537 222.0956097561 337.17073170732 197.46965853659 337.17073170732 167.0243902439v-24.96312195122 l23.052487804878 -9.6156097560976C376.55726829268 125.62731707317 387.12195121951 109.7927804878 387.12195121951 92.09756097561c0 -24.101463414634 -19.605853658537 -43.707317073171 -43.707317073171 -43.707317073171h-37.463414634146c-10.339902439024 0 -18.731707317073 -8.3918048780488 -18.731707317073 -18.731707317073c0 -10.339902439024 8.3918048780488 -18.731707317073 18.731707317073 -18.731707317073h37.463414634146 c44.831219512195 0 81.170731707317 36.339512195122 81.170731707317 81.170731707317C424.58536585366 124.21619512195 405.81619512195 151.78926829268 378.74263414634 164.95141463415zM365.21834146341 207.72214634146c-14.735609756098 30.407804878049 -45.380682926829 51.64956097561 -81.170731707317 52.810926829268 c-8.2419512195122 10.452292682927 -18.119804878049 19.51843902439 -29.109073170732 27.061073170732C267.51375609756 301.65541463415 285.64604878049 310.63414634146 305.9512195122 310.63414634146c37.875512195122 0 68.682926829268 -30.807414634146 68.682926829268 -68.682926829268 C374.63414634146 229.43843902439 371.11258536585 217.81229268293 365.21834146341 207.72214634146zM493.26829268293 260.68292682927h-37.463414634146c-10.339902439024 0 -18.731707317073 -8.3918048780488 -18.731707317073 -18.731707317073s8.3918048780488 -18.731707317073 18.731707317073 -18.731707317073h37.463414634146c10.339902439024 0 18.731707317073 8.3918048780488 18.731707317073 18.731707317073 S503.60819512195 260.68292682927 493.26829268293 260.68292682927zM256 35.90243902439H224.78048780488v56.19512195122c0 3.4466341463415 -2.7972682926829 6.2439024390244 -6.2439024390244 6.2439024390244c-2.3352195121951 0 -4.358243902439 -1.273756097561 -5.4321951219512 -3.1469268292683l-49.951219512195 -87.414634146341 C162.62868292683 6.8682926829268 162.34146341463 5.8068292682927 162.34146341463 4.6829268292683c0 -3.4466341463415 2.7972682926829 -6.2439024390244 6.2439024390244 -6.2439024390244H199.80487804878v-56.19512195122c0 -3.4466341463415 2.7972682926829 -6.2439024390244 6.2439024390244 -6.2439024390244c2.3227317073171 0 4.358243902439 1.273756097561 5.4321951219512 3.1469268292683 l49.951219512195 87.414634146341C261.95668292683 27.473170731707 262.24390243902 28.534634146341 262.24390243902 29.658536585366C262.24390243902 33.105170731707 259.44663414634 35.90243902439 256 35.90243902439z"/><glyph unicode="&#xE02A;" glyph-name="empty31" horiz-adv-x="368" d="M344 -16H336v64c0 16.368 -6.16 31.328 -16.288 42.656l-71.584 80.016 C243.072 176.336 240 183.808 240 192s3.072 15.664 8.144 21.328l71.584 80.032C329.84 304.672 336 319.616 336 336V400h8C357.248 400 368 410.752 368 424 S357.248 448 344 448h-320C10.752 448 0 437.248 0 424S10.752 400 24 400H32v-64c0 -16.384 6.16 -31.328 16.288 -42.656l71.584 -80.032 C124.928 207.664 128 200.192 128 192s-3.072 -15.664 -8.144 -21.328l-71.584 -80.016C38.16 79.328 32 64.368 32 48v-64H24C10.752 -16 0 -26.752 0 -40 C0 -53.248 10.752 -64 24 -64h320c13.248 0 24 10.752 24 24C368 -26.752 357.248 -16 344 -16zM288 -16H80v64 c0 5.056 2.208 8.592 4.048 10.656l71.6 80.032C168.768 153.376 176 172.304 176 192c0 19.696 -7.232 38.64 -20.368 53.328L84.064 325.344 C82.208 327.424 80 330.96 80 336V400h208v-64c0 -5.04 -2.208 -8.576 -4.064 -10.656l-71.6 -80.048C199.232 230.64 192 211.696 192 192 c0 -19.696 7.232 -38.624 20.368 -53.328l71.568 -80C285.776 56.592 288 53.056 288 48V-16z"/><glyph unicode="&#xE02B;" glyph-name="empty32" horiz-adv-x="512" d="M480 384h-64V424C416 437.248 405.248 448 392 448C378.752 448 368 437.248 368 424V384H144V424 C144 437.248 133.248 448 120 448C106.752 448 96 437.248 96 424V384H32C14.336 384 0 369.68 0 352v-384c0 -17.68 14.336 -32 32 -32h448c17.664 0 32 14.32 32 32V352 C512 369.68 497.664 384 480 384zM464 -16H48V240h416V-16zM464 288H48V336h416V288z"/><glyph unicode="&#xE02C;" glyph-name="equalization2" horiz-adv-x="603" d="M128 370.96228571429V420.57142857143C128 435.73028571429 115.73028571429 448 100.57142857143 448C85.412571428571 448 73.142857142857 435.73028571429 73.142857142857 420.57142857143v-49.609142857143 C30.994285714286 358.98514285714 0 320.21942857143 0 274.28571428571c0 -45.933714285714 30.994285714286 -84.699428571429 73.142857142857 -96.676571428571V-36.571428571429C73.142857142857 -51.712 85.412571428571 -64 100.57142857143 -64C115.73028571429 -64 128 -51.712 128 -36.571428571429V177.60914285714 c42.148571428571 11.977142857143 73.142857142857 50.724571428571 73.142857142857 96.676571428571C201.14285714286 320.21942857143 170.14857142857 358.98514285714 128 370.96228571429zM100.57142857143 228.57142857143C75.373714285714 228.57142857143 54.857142857143 249.088 54.857142857143 274.28571428571C54.857142857143 299.48342857143 75.373714285714 320 100.57142857143 320 C125.76914285714 320 146.28571428571 299.48342857143 146.28571428571 274.28571428571C146.28571428571 249.088 125.76914285714 228.57142857143 100.57142857143 228.57142857143zM329.14285714286 206.39085714286V420.57142857143C329.14285714286 435.73028571429 316.87314285714 448 301.71428571429 448C286.55542857143 448 274.28571428571 435.73028571429 274.28571428571 420.57142857143v-214.18057142857 c-42.148571428571 -11.977142857143 -73.142857142857 -50.742857142857 -73.142857142857 -96.676571428571c0 -45.933714285714 30.994285714286 -84.699428571429 73.142857142857 -96.676571428571V-36.571428571429c0 -15.140571428571 12.269714285714 -27.428571428571 27.428571428571 -27.428571428571c15.158857142857 0 27.428571428571 12.288 27.428571428571 27.428571428571v49.609142857143 c42.148571428571 11.977142857143 73.142857142857 50.742857142857 73.142857142857 96.676571428571C402.28571428571 155.648 371.29142857143 194.41371428571 329.14285714286 206.39085714286zM301.71428571429 64c-25.197714285714 0 -45.714285714286 20.498285714286 -45.714285714286 45.714285714286s20.516571428571 45.714285714286 45.714285714286 45.714285714286 s45.714285714286 -20.498285714286 45.714285714286 -45.714285714286S326.912 64 301.71428571429 64zM530.28571428571 370.96228571429V420.57142857143C530.28571428571 435.73028571429 518.016 448 502.85714285714 448S475.42857142857 435.73028571429 475.42857142857 420.57142857143v-49.609142857143 c-42.148571428571 -11.977142857143 -73.142857142857 -50.724571428571 -73.142857142857 -96.676571428571c0 -45.933714285714 30.994285714286 -84.699428571429 73.142857142857 -96.676571428571V-36.571428571429c0 -15.140571428571 12.269714285714 -27.428571428571 27.428571428571 -27.428571428571s27.428571428571 12.288 27.428571428571 27.428571428571V177.60914285714 c42.148571428571 11.977142857143 73.142857142857 50.724571428571 73.142857142857 96.676571428571C603.42857142857 320.21942857143 572.43428571429 358.98514285714 530.28571428571 370.96228571429zM502.85714285714 228.57142857143c-25.197714285714 0 -45.714285714286 20.516571428571 -45.714285714286 45.714285714286C457.14285714286 299.48342857143 477.65942857143 320 502.85714285714 320 C528.05485714286 320 548.57142857143 299.48342857143 548.57142857143 274.28571428571C548.57142857143 249.088 528.05485714286 228.57142857143 502.85714285714 228.57142857143z"/><glyph unicode="&#xE02D;" glyph-name="favorites2" horiz-adv-x="512" d="M511.168 248.288c-2.176 7.184 -8.112 12.592 -15.44 14.096l-158.128 31.664 l-63.056 141.936C271.296 443.28 264 448 256 448c-8 0 -15.28 -4.752 -18.56 -12.064l-63.024 -141.904l-158.176 -31.664 c-7.312 -1.504 -13.184 -6.88 -15.36 -14.064c-2.192 -7.088 -0.224 -14.848 5.088 -20.224l110.16 -110.08l-30.784 -157.632 c-1.536 -7.696 0.448 -15.152 6.4 -19.936c3.552 -2.8 8.112 -4.336 12.848 -4.336c2.848 0 5.632 0.592 8.16 1.744L256 1.392l143.488 -63.632 C401.92 -63.408 404.624 -64 407.552 -64c4.56 0 9.04 1.552 12.576 4.368c5.984 4.752 8 12.432 6.544 20l-30.864 157.664l110.256 110.08 C511.376 233.408 513.344 241.152 511.168 248.288zM361.904 151.984c-11.312 -11.296 -16.272 -27.488 -13.184 -43.184l20.56 -105.12l-93.808 41.6 c-6.192 2.752 -12.832 4.128 -19.472 4.128c-6.624 0 -13.248 -1.376 -19.456 -4.128l-93.856 -41.632l20.56 105.168 c3.056 15.68 -1.872 31.856 -13.184 43.152l-73.568 73.52l107.312 21.472c15.28 3.056 28.128 13.344 34.448 27.584L256 359.488l37.744 -84.96 c6.32 -14.24 19.152 -24.512 34.432 -27.584l107.344 -21.488L361.904 151.984z"/><glyph unicode="&#xE02E;" glyph-name="file60" horiz-adv-x="384" d="M256 448H32C14.336 448 0 433.664 0 416v-448c0 -17.68 14.336 -32 32 -32h320 c17.664 0 32 14.336 32 32V320L256 448zM336 -16H48V400h192v-96h96V-16z"/><glyph unicode="&#xE02F;" glyph-name="first40" horiz-adv-x="563" d="M256 55.466666666667h51.2v68.266666666667h68.266666666667v51.2h-68.266666666667v68.266666666667h-51.2v-68.266666666667h-68.266666666667v-51.2h68.266666666667V55.466666666667zM529.06666666667 362.66666666667h-119.46666666667V413.86666666667c0 18.8416 -15.291733333333 34.133333333333 -34.133333333333 34.133333333333H187.73333333333 C168.89173333333 448 153.6 432.70826666667 153.6 413.86666666667v-51.2H34.133333333333C15.291733333333 362.66666666667 0 347.37493333333 0 328.53333333333v-358.4c0 -18.8416 15.291733333333 -34.133333333333 34.133333333333 -34.133333333333h494.93333333333c18.8416 0 34.133333333333 15.291733333333 34.133333333333 34.133333333333V328.53333333333C563.2 347.37493333333 547.90826666667 362.66666666667 529.06666666667 362.66666666667zM204.8 396.8h153.6 v-34.133333333333h-153.6V396.8zM512 -12.8H51.2V311.46666666667h460.8V-12.8z"/><glyph unicode="&#xE030;" glyph-name="flash22" horiz-adv-x="352" d="M349.088 243.456C344.88 251.184 336.8 256 328 256H224V424 c0 10.64 -7.008 20 -17.2 23.008c-10.16 3.024 -21.168 -1.056 -26.96 -9.984l-176 -272c-4.784 -7.376 -5.12 -16.784 -0.944 -24.496 C7.136 132.8 15.232 128 24 128H128v-168c0 -10.64 7.008 -20 17.2 -23.024C147.456 -63.696 149.76 -64 152 -64c8 0 15.664 4 20.16 10.96 l176 272C352.928 226.336 353.28 235.744 349.088 243.456zM176 41.264V152c0 13.248 -10.752 24 -24 24H68.128L176 342.72V232 c0 -13.248 10.752 -24 24 -24h83.888L176 41.264z"/><glyph unicode="&#xE031;" glyph-name="flower109" horiz-adv-x="448" d="M223.90903695374 224.01099553306c-17.656826914066 0 -32.002998781745 -14.330178365039 -32.002998781745 -32.002998781745 c0 -17.656826914066 14.330178365039 -32.002998781745 32.002998781745 -32.002998781745c17.672820416706 0 32.002998781745 14.346171867679 32.002998781745 32.002998781745C255.91203573548 209.68081716803 241.58185737044 224.01099553306 223.90903695374 224.01099553306zM400.10945553369 192.00799675132 c43.678255708618 48.476306500484 58.312310623809 93.545996938744 39.967763096242 125.58098272577C427.41036453941 339.67600662231 402.55646143754 351.20732202543 367.85056070971 351.94302314685c-15.753600099959 0.31987005279105 -33.554368537782 -1.5513697560366 -53.146409271234 -5.6776934370412 C294.44038359416 411.19895042639 262.00556024115 448 223.90903695374 448c-38.096523287414 0 -70.531346640427 -36.801049573611 -90.81110798738 -101.75066379283C71.011151719614 359.2040733452 25.893480773436 349.22412769812 7.7248617749039 317.57298597445 c-18.328554024927 -32.050979289664 -3.6785056070971 -77.088682722644 39.983756598882 -125.58098272577c-43.678255708618 -48.476306500484 -58.312310623809 -93.545996938744 -39.967763096242 -125.58098272577c13.130665667073 -22.902695779839 39.264048980102 -34.354043669759 75.905163527317 -34.354043669759 c14.809983444226 0 31.411239184081 1.8072657982695 49.483897166776 5.6297129291225c20.263767844313 -64.933620716584 52.698591197326 -101.70268328492 90.779120982101 -101.70268328492c38.096523287414 0 70.531346640427 36.785056070971 90.795114484741 101.73467029019 c17.592852903508 -3.6785056070971 33.922219098491 -5.613719426483 48.556274013682 -5.613719426483c36.992971605285 0 63.798082029176 11.627276418955 76.832786680411 34.290069659201C458.4217661575 98.477993315216 443.77171773967 143.53169025084 400.10945553369 192.00799675132zM223.90903695374 400.0034985787 c11.227438852966 0 34.913816262144 -23.94227345141 50.619435854184 -88.204167057133c1.9352138193859 -7.9327773092181 3.3906225595852 -16.409333708181 4.9259988129822 -24.789929091307c-0.22390903695374 0.12794802111642 -0.44781807390748 0.28788304751195 -0.67172711086121 0.41583106862837 c-14.3141848624 8.3326148752069 -29.300096835661 16.233405179146 -44.557898353794 23.494455377503c-18.680411082998 8.8923874675913 -37.040952113204 16.361353200262 -54.905694561584 22.486864711211C194.56095961016 381.4830225221 214.04104582513 400.0034985787 223.90903695374 400.0034985787zM49.403929653578 90.273326461125 c-5.325836378971 9.3082185362197 3.0707525067941 40.463561678068 48.316371474089 84.541654952675c4.4941742417143 4.3822197232374 9.3082185362197 8.7644394464749 14.266204354481 13.130665667073c0.095961015837316 -15.0019054759 0.65573360822166 -29.971823946522 1.7752787929903 -44.477930840596 c1.5993502639553 -20.551650891825 4.5741417549121 -40.095711117359 8.2046668540905 -59.079998750508C77.296598256958 75.271420985225 53.898103895293 82.420516665105 49.403929653578 90.273326461125zM123.80570393278 258.28507168963c-15.03389248118 -10.667666260582 -28.94823977759 -21.655202573954 -41.711054883953 -32.770686908443 c-31.507200199919 35.377627838691 -37.344828663356 60.103582919439 -32.722706400525 68.196295255053C54.569831006154 302.77899603286 84.653609471152 310.96766938431 143.47771217943 294.41439415238c7.8847968012995 -2.2230968668978 16.009496142192 -4.9100053103427 24.230156498922 -7.8208227907413 C153.0098397526 277.98906694155 138.27982382157 268.5049198763 123.80570393278 258.28507168963zM223.90903695374 -15.987505076063c-11.227438852966 0 -34.913816262144 23.94227345141 -50.619435854184 88.204167057133c-1.9352138193859 7.9487708118577 -3.3906225595852 16.409333708181 -4.9259988129822 24.805922593946 c0.22390903695374 -0.12794802111642 0.44781807390748 -0.2718895448724 0.67172711086121 -0.39983756598882c14.3141848624 -8.3646018804861 29.300096835661 -16.265392184425 44.557898353794 -23.510448880142c18.680411082998 -8.8923874675913 37.040952113204 -16.361353200262 54.905694561584 -22.486864711211 C253.25711429732 2.5169774778996 233.77702808234 -15.987505076063 223.90903695374 -15.987505076063zM254.63255552432 138.07790585075c-9.8999781338831 -5.7736544528785 -20.263767844313 -11.227438852966 -30.723518570581 -16.4573142161 c-10.459750726267 5.2298753631337 -20.807546934058 10.683659763221 -30.723518570581 16.473307718739c-10.667666260582 6.2054790241464 -21.367319526442 13.098678661794 -32.002998781745 20.279761346953c-0.63974010558211 11.09949083185 -1.2794802111642 22.262955674257 -1.2794802111642 33.634336050979 s0.63974010558211 22.502858213851 1.2794802111642 33.61834254834c10.635679255303 7.1970761877987 21.335332521163 14.090275825446 32.002998781745 20.311748352232c9.8999781338831 5.757660950239 20.263767844313 11.211445350326 30.723518570581 16.4573142161 c10.459750726267 -5.2458688657733 20.823540436698 -10.699653265861 30.723518570581 -16.4573142161c10.667666260582 -6.221472526786 21.367319526442 -13.114672164433 32.002998781745 -20.311748352232c0.63974010558211 -11.115484334489 1.2794802111642 -22.262955674257 1.2794802111642 -33.634336050979 s-0.63974010558211 -22.502858213851 -1.2794802111642 -33.634336050979C275.99987505076 151.19257801518 265.3002217849 144.28338487489 254.63255552432 138.07790585075zM398.44613125918 90.273326461125c-5.2138818604942 -9.0043419860682 -35.313653828132 -17.225002342798 -94.105769531128 -0.68772061350077 c-7.8847968012995 2.2230968668978 -15.993502639553 4.9100053103427 -24.214162996283 7.8208227907413c14.66604192047 8.5885109174398 29.428044856777 18.072657982695 43.870177740293 28.292506169369c15.03389248118 10.683659763221 28.94823977759 21.655202573954 41.727048386593 32.786680411083 C397.21463155593 123.10798738013 403.06825352201 98.382032299378 398.44613125918 90.273326461125zM350.09777277981 209.1850185862c-4.4941742417143 -4.3822197232374 -9.3082185362197 -8.7644394464749 -14.266204354481 -13.130665667073 c-0.095961015837316 15.01789897854 -0.65573360822166 29.971823946522 -1.7752787929903 44.477930840596c-1.5993502639553 20.551650891825 -4.5741417549121 40.111704619998 -8.2046668540905 59.095992253147c44.653859369631 9.116296504545 68.036360228657 1.9512073220254 72.562521475651 -5.9016024739949 C403.73998063287 284.41845500266 395.3433917471 253.24711835817 350.09777277981 209.1850185862z"/><glyph unicode="&#xE032;" glyph-name="focus7" horiz-adv-x="512" d="M256 448C114.62193548387 448 0 333.37806451613 0 192C0 50.621935483871 114.62193548387 -64 256 -64 C397.37806451613 -64 512 50.621935483871 512 192C512 333.37806451613 397.37806451613 448 256 448zM280.77419354839 -12.816516129032V43.354838709677c0 13.67535483871 -11.082322580645 24.774193548387 -24.774193548387 24.774193548387S231.22580645161 57.030193548387 231.22580645161 43.354838709677v-56.17135483871 C137.18296774194 -1.5029677419355 62.497032258065 73.199483870968 51.183483870968 167.22580645161H107.35483870968C121.04670967742 167.22580645161 132.12903225806 178.32464516129 132.12903225806 192C132.12903225806 205.67535483871 121.04670967742 216.77419354839 107.35483870968 216.77419354839H51.183483870968 C62.497032258065 310.80051612903 137.18296774194 385.50296774194 231.22580645161 396.81651612903V340.64516129032C231.22580645161 326.96980645161 242.30812903226 315.87096774194 256 315.87096774194S280.77419354839 326.96980645161 280.77419354839 340.64516129032V396.81651612903C374.81703225806 385.50296774194 449.50296774194 310.80051612903 460.81651612903 216.77419354839H404.64516129032 c-13.691870967742 0 -24.774193548387 -11.098838709677 -24.774193548387 -24.774193548387c0 -13.67535483871 11.082322580645 -24.774193548387 24.774193548387 -24.774193548387h56.17135483871C449.50296774194 73.199483870968 374.81703225806 -1.5029677419355 280.77419354839 -12.816516129032z"/><glyph unicode="&#xE033;" glyph-name="fog8" horiz-adv-x="600" d="M397.24137931034 77.241379310345h-176.55172413793c-14.618482758621 0 -26.48275862069 -11.846620689655 -26.48275862069 -26.48275862069c0 -14.636137931034 11.864275862069 -26.48275862069 26.48275862069 -26.48275862069h176.55172413793 c14.618482758621 0 26.48275862069 11.846620689655 26.48275862069 26.48275862069C423.72413793103 65.39475862069 411.85986206897 77.241379310345 397.24137931034 77.241379310345zM397.24137931034 -11.034482758621h-176.55172413793c-14.618482758621 0 -26.48275862069 -11.846620689655 -26.48275862069 -26.48275862069s11.864275862069 -26.48275862069 26.48275862069 -26.48275862069h176.55172413793 c14.618482758621 0 26.48275862069 11.846620689655 26.48275862069 26.48275862069S411.85986206897 -11.034482758621 397.24137931034 -11.034482758621zM397.24137931034 165.51724137931h-176.55172413793c-14.618482758621 0 -26.48275862069 -11.846620689655 -26.48275862069 -26.48275862069c0 -14.636137931034 11.864275862069 -26.48275862069 26.48275862069 -26.48275862069h176.55172413793 c14.618482758621 0 26.48275862069 11.846620689655 26.48275862069 26.48275862069C423.72413793103 153.67062068966 411.85986206897 165.51724137931 397.24137931034 165.51724137931zM529.65517241379 244.96551724138c0 71.68 -56.97324137931 129.88910344828 -128.07062068966 132.18427586207C367.63365517241 420.24606896552 315.12717241379 448 256 448 C157.46648275862 448 77.117793103448 371.0764137931 71.185655172414 274.02593103448C28.901517241379 251.93931034483 0 207.73075862069 0 156.68965517241C0 83.544275862069 59.268413793103 24.275862068966 132.41379310345 24.275862068966C147.03227586207 24.275862068966 158.89655172414 36.122482758621 158.89655172414 50.758620689655 C158.89655172414 65.39475862069 147.03227586207 77.241379310345 132.41379310345 77.241379310345C88.611310344828 77.241379310345 52.965517241379 112.88717241379 52.965517241379 156.68965517241c0 29.643034482759 16.384 56.620137931034 42.760827586207 70.391172413793l26.500413793103 13.859310344828l1.8184827586207 29.854896551724 C128.31779310345 340.46234482759 186.27972413793 395.03448275862 256 395.03448275862c40.730482758621 0 78.618482758621 -18.467310344828 103.98896551724 -50.652689655172l15.254068965517 -19.367724137931l24.646620689655 -0.79448275862069C442.95062068966 322.82482758621 476.68965517241 288.02648275862 476.68965517241 244.96551724138v-35.292689655172 l32.591448275862 -13.594482758621C532.37406896552 186.43862068966 547.31034482759 164.05186206897 547.31034482759 139.03448275862c0 -34.074482758621 -27.718620689655 -61.793103448276 -61.793103448276 -61.793103448276c-14.618482758621 0 -26.48275862069 -11.846620689655 -26.48275862069 -26.48275862069c0 -14.636137931034 11.864275862069 -26.48275862069 26.48275862069 -26.48275862069 c63.382068965517 0 114.75862068966 51.376551724138 114.75862068966 114.75862068966C600.27586206897 186.77406896552 571.12717241379 227.68110344828 529.65517241379 244.96551724138z"/><glyph unicode="&#xE034;" glyph-name="folded32" horiz-adv-x="603" d="M448 448l-146.28571428571 -73.142857142857l-146.28571428571 73.142857142857L0 374.85714285714v-438.85714285714l155.42857142857 73.142857142857l146.28571428571 -73.142857142857l146.28571428571 73.142857142857l155.42857142857 -73.142857142857V374.85714285714L448 448zM128 56.868571428571l-73.142857142857 -34.432 V340.04114285714l73.142857142857 34.432V56.868571428571zM274.28571428571 11.044571428571l-91.428571428571 45.714285714286V372.95542857143l91.428571428571 -45.732571428571V11.044571428571zM420.57142857143 56.758857142857l-91.428571428571 -45.714285714286V327.22285714286l91.428571428571 45.714285714286V56.758857142857zM548.57142857143 22.436571428571l-73.142857142857 34.432V374.45485714286 l73.142857142857 -34.432V22.436571428571z"/><glyph unicode="&#xE035;" glyph-name="folder167" horiz-adv-x="585" d="M548.57142857143 393.14285714286H274.28571428571l-54.857142857143 54.857142857143H36.571428571429C16.384 448 0 431.616 0 411.42857142857v-438.85714285714c0 -20.205714285714 16.384 -36.571428571429 36.571428571429 -36.571428571429h512 c20.187428571429 0 36.571428571429 16.384 36.571428571429 36.571428571429V356.57142857143C585.14285714286 376.77714285714 568.75885714286 393.14285714286 548.57142857143 393.14285714286zM530.28571428571 -9.1428571428571H54.857142857143V246.85714285714h475.42857142857V-9.1428571428571zM530.28571428571 301.71428571429H54.857142857143V393.14285714286h141.84228571429l54.857142857143 -54.857142857143H530.28571428571V301.71428571429z"/><glyph unicode="&#xE036;" glyph-name="game51" horiz-adv-x="448" d="M416 64h-48v32c0 26.496 -21.488 48 -48 48h-64v117.6c37.232 13.216 64 48.704 64 90.4 c0 52.944 -43.056 96 -96 96S128 404.944 128 352c0 -41.696 26.768 -77.184 64 -90.4V144H128c-26.512 0 -48 -21.504 -48 -48v-32H32c-17.664 0 -32 -14.336 -32 -32v-64 c0 -17.68 14.336 -32 32 -32h384c17.664 0 32 14.32 32 32v64C448 49.68 433.664 64 416 64zM176 352c0 26.464 21.536 48 48 48c26.464 0 48 -21.536 48 -48 s-21.536 -48 -48 -48C197.536 304 176 325.536 176 352zM128 96h192v-32H128V96zM400 -16H48v32h352V-16z"/><glyph unicode="&#xE037;" glyph-name="global24" horiz-adv-x="512" d="M256 448C114.83664516129 448 0 333.16335483871 0 192C0 50.83664516129 114.83664516129 -64 256 -64 C397.16335483871 -64 512 50.83664516129 512 192C512 333.16335483871 397.16335483871 448 256 448zM57.938580645161 134.1935483871C52.570838709677 152.55948387097 49.548387096774 171.91638709677 49.548387096774 192c0 20.083612903226 3.0224516129032 39.440516129032 8.3901935483871 57.806451612903 h61.241806451613C116.91767741935 231.25883870968 115.61290322581 211.968 115.61290322581 192c0 -19.968 1.3047741935484 -39.258838709677 3.5674838709677 -57.806451612903H57.938580645161zM79.987612903226 84.645161290323h48.260129032258c6.7385806451613 -27.235096774194 15.921548387097 -51.86064516129 27.185548387097 -72.786580645161 C124.44903225806 29.217032258064 98.502193548387 54.404129032258 79.987612903226 84.645161290323zM128.24774193548 299.35483870968H79.987612903226c18.514580645161 30.241032258065 44.461419354839 55.428129032258 75.445677419355 72.786580645161C144.16929032258 351.21548387097 134.98632258065 326.58993548387 128.24774193548 299.35483870968zM231.22580645161 -5.4668387096774c-20.430451612903 14.583741935484 -39.622193548387 46.410322580645 -52.009290322581 90.112H231.22580645161V-5.4668387096774zM231.22580645161 134.1935483871h-62.166709677419C166.61470967742 152.31174193548 165.16129032258 171.58606451613 165.16129032258 192 c0 20.413935483871 1.4534193548387 39.688258064516 3.8978064516129 57.806451612903H231.22580645161V134.1935483871zM231.22580645161 299.35483870968h-52.009290322581C191.60361290323 343.05651612903 210.79535483871 374.88309677419 231.22580645161 389.46683870968V299.35483870968zM432.01238709677 299.35483870968h-48.260129032258 c-6.7385806451613 27.235096774194 -15.921548387097 51.86064516129 -27.185548387097 72.786580645161C387.55096774194 354.7664516129 413.49780645161 329.59587096774 432.01238709677 299.35483870968zM280.77419354839 389.46683870968c20.430451612903 -14.583741935484 39.622193548387 -46.410322580645 52.009290322581 -90.112H280.77419354839 V389.46683870968zM280.77419354839 -5.4668387096774V84.645161290323h52.009290322581C320.39638709677 40.943483870968 301.20464516129 9.1169032258064 280.77419354839 -5.4668387096774zM342.94090322581 134.1935483871H280.77419354839v115.61290322581h62.166709677419C345.38529032258 231.68825806452 346.83870967742 212.41393548387 346.83870967742 192 C346.83870967742 171.58606451613 345.38529032258 152.31174193548 342.94090322581 134.1935483871zM356.55019354839 11.858580645161c11.280516129032 20.942451612903 20.446967741935 45.551483870968 27.185548387097 72.786580645161h48.260129032258 C413.49780645161 54.404129032258 387.55096774194 29.217032258064 356.55019354839 11.858580645161zM392.81961290323 134.1935483871C395.08232258065 152.74116129032 396.38709677419 172.032 396.38709677419 192c0 19.984516129032 -1.3047741935484 39.258838709677 -3.5674838709677 57.806451612903h61.241806451613 C459.42916129032 231.44051612903 462.45161290323 212.08361290323 462.45161290323 192c0 -20.083612903226 -3.0224516129032 -39.440516129032 -8.3901935483871 -57.806451612903H392.81961290323z"/></font>
</defs>
</svg>
